За последнюю неделю опубликовано 30 новых материалов.
Инструкция новичку Путеводитель по форуму Прокси для Telegram Показать подсказки , это бомба!

Скачать Гундала / Gundala (2019) BDRip 1080p | L бесплатно через торрент

  • Поучаствуй (в качестве покупателя) в любых пяти совместных покупках (кроме завершённых и "Моментальных") и получи группу "Новичок" навсегда -> ссылка на раздел
  • Получай до 480 рублей за каждого приглашенного пользователя!
    представляем Вам очередное расширение партнерской программы, подробности описаны тут -> ссылка
  • 90% материалов доступно к скачиванию после простой регистрации!
    Если же ты хочешь скачивать материалы без требования оставлять отзывы то получи группу "Новичок", 10 способов повышения описаны тут -> ссылка
  • К сожалению количество битых ссылок растет и мы уже не можем их оперативно восстанавливать поэтому просим помощи у каждого нашего пользователя.
    С сегодняшнего дня, за каждую восстановленную ссылку мы заплатим Вам.
    Подробнее тут -> ссылка
  • Перенесем твои заслуги с другого ресурса!
    Мы понимаем как сложно прокачивать аккаунты на форумах, вроде раскачал аккаунт, а тут появляется ресурс в 100 раз круче но тоже с системой прокачки и снова качать аккаунт...
    Предлагаем вам перенести Ваши заслуги на другом подобном ресурсе к нам.
    Подробности описаны тут -> ссылка
  • Вы можете получать по 2.5% с каждой покупки и продажи на маркете! Подробности в теме Партнёрская программа
Если Вы не хотите скачивать, Вы всегда можетепосмотретьонлайн, просто нажмите кнопку ниже :

Открыть плеер

Torrent_Bot

Торрент-Бот
Бот форума
4 Окт 2016
93
160
20


Информация о фильме
Название: Гундала
Оригинальное название: Gundala
Год выхода: 2019
Жанр: Боевик, фантастика, драма
Режиссер: Джоко Анвар
В ролях: Абимана Арьясатья, Тара Басро, Бронт Паларэ, Арио Баю, Лукман Сарди, Арсвенди Насутион, Pritt Timothy, Aqi Singgih, Донни Аламшя, Tanta Ginting

О фильме:
Ещё ребенком Санчака потерял родителей — отец погиб, отстаивая права рабочих, а мать уехала на заработки и не вернулась — с тех пор мальчик выживал самостоятельно. Нелегкая жизнь на улице научила его не только эффективно махать ногами, а и думать в первую очередь о собственной безопасности, но когда волна насилия захлёстывает город, мужчине приходится встать на сторону униженных и оскорбленных. А поскольку в результате удара молнии наш герой получил свехспособности, врагам простого народа придётся несладко.




Страна: Индонезия
Студия: Screenplay Films, Bumilangit Studios, Legacy Pictures
Продолжительность: 02:00:07
Перевод: Любительский многоголосый | @[email protected]

Файл
Кодек: x.264
Качество: BDRip 1080p
Видео: MPEG-4 AVC, 10.5 Mбит/с, 1920x804, 23.976 кадр/с
Аудио #1: Русский (АС3, 2 ch, 192 Кбит/с, 48.0 KHz) Любительский (многоголосый, закадровый) @[email protected]
Аудио #2: Немецкий (АС3, 6 ch, 640 Кбит/с, 48.0 KHz)
Аудио #3: Индонезийский (АС3, 6 ch, 640 Кбит/с, 48.0 KHz)
Субтитры: английские
► Без Рекламы!
Трейлер
MediaInfo
Источник: Gundala.2019.BluRay.Remux.1080p
General
Unique ID : 193719967439815402290556430812415328973 (0x91BD1BCDFBBB14AF83A54C0E91A102CD)
Complete name : Gundala.2019.BDRip.1080p.Rus.Ger.Ind.mkv
Format : Matroska
Format version : Version 4
File size : 10.0 GiB
Duration : 2 h 0 min
Overall bit rate : 12.0 Mb/s
Movie name : Gundala - Blu-ray™
Encoded date : UTC 2020-06-24 21:47:23
Writing application : mkvmerge v7.1.0 ('Good Love') 64bit built on Jul 27 2014 13:06:55
Writing library : libebml v1.3.0 + libmatroska v1.4.1

Video
ID : 1
Format : AVC
Format/Info : Advanced Video Codec
Format profile : [email protected]
Format settings : CABAC / 5 Ref Frames
Format settings, CABAC : Yes
Format settings, Reference fra : 5 frames
Codec ID : V_MPEG4/ISO/AVC
Duration : 2 h 0 min
Bit rate : 10.5 Mb/s
Width : 1 920 pixels
Height : 804 pixels
Display aspect ratio : 2.40:1
Frame rate mode : Constant
Frame rate : 23.976 (24000/1001) FPS
Color space : YUV
Chroma subsampling : 4:2:0
Bit depth : 8 bits
Scan type : Progressive
Bits/(Pixel*Frame) : 0.284
Stream size : 8.80 GiB (88%)
Writing library : x264 core 157 r2958 57baac4
Encoding settings : cabac=1 / ref=5 / deblock=1:-3:-3 / analyse=0x3:0x113 / me=umh / subme=11 / psy=1 / psy_rd=1.00:0.00 / mixed_ref=1 / me_range=48 / chroma_me=1 / trellis=2 / 8x8dct=1 / cqm=0 / deadzone=21,11 / fast_pskip=1 / chroma_qp_offset=-2 / threads=18 / lookahead_threads=4 / sliced_threads=0 / nr=0 / decimate=1 / interlaced=0 / bluray_compat=0 / constrained_intra=0 / bframes=10 / b_pyramid=2 / b_adapt=2 / b_bias=0 / direct=3 / weightb=1 / open_gop=0 / weightp=2 / keyint=240 / keyint_min=24 / scenecut=40 / intra_refresh=0 / rc_lookahead=60 / rc=2pass / mbtree=1 / bitrate=10500 / ratetol=1.0 / qcomp=0.60 / qpmin=0 / qpmax=69 / qpstep=4 / cplxblur=20.0 / qblur=0.5 / vbv_maxrate=50000 / vbv_bufsize=60500 / nal_hrd=none / filler=0 / ip_ratio=1.40 / aq=1:1.00
Language : Indonesian
Default : Yes
Forced : No

Audio #1
ID : 2
Format : AC-3
Format/Info : Audio Coding 3
Commercial name : Dolby Digital
Codec ID : A_AC3
Duration : 2 h 0 min
Bit rate mode : Constant
Bit rate : 192 kb/s
Channel(s) : 2 channels
Channel layout : L R
Sampling rate : 48.0 kHz
Frame rate : 31.250 FPS (1536 SPF)
Compression mode : Lossy
Stream size : 165 MiB (2%)
Title : MVO @[email protected]
Language : Russian
Service kind : Complete Main
Default : Yes
Forced : No

Audio #2
ID : 3
Format : AC-3
Format/Info : Audio Coding 3
Commercial name : Dolby Digital
Codec ID : A_AC3
Duration : 2 h 0 min
Bit rate mode : Constant
Bit rate : 640 kb/s
Channel(s) : 6 channels
Channel layout : L R C LFE Ls Rs
Sampling rate : 48.0 kHz
Frame rate : 31.250 FPS (1536 SPF)
Compression mode : Lossy
Stream size : 550 MiB (5%)
Language : German
Service kind : Complete Main
Default : No
Forced : No

Audio #3
ID : 4
Format : AC-3
Format/Info : Audio Coding 3
Commercial name : Dolby Digital
Codec ID : A_AC3
Duration : 2 h 0 min
Bit rate mode : Constant
Bit rate : 640 kb/s
Channel(s) : 6 channels
Channel layout : L R C LFE Ls Rs
Sampling rate : 48.0 kHz
Frame rate : 31.250 FPS (1536 SPF)
Compression mode : Lossy
Stream size : 550 MiB (5%)
Language : Indonesian
Service kind : Complete Main
Default : No
Forced : No

Text
ID : 5
Format : UTF-8
Codec ID : S_TEXT/UTF8
Codec ID/Info : UTF-8 Plain Text
Duration : 1 h 54 min
Bit rate : 36 b/s
Count of elements : 1059
Stream size : 30.5 KiB (0%)
Language : English
Default : No
Forced : No

Menu
00:00:00.000 : en:Глава 01
00:10:11.193 : en:Глава 02
00:19:56.403 : en:Глава 03
00:30:55.436 : en:Глава 04
00:41:31.155 : en:Глава 05
00:53:05.932 : en:Глава 06
01:04:59.478 : en:Глава 07
01:16:29.585 : en:Глава 08
01:27:29.202 : en:Глава 09
01:37:49.822 : en:Глава 10
01:47:08.255 : en:Глава 11
01:55:53.112 : en:Глава 12
Скриншоты
 

Вложения

  • 26 KB Просмотры: 0
    Личеров 0
    Сидеров 0
    Файлов 1
    Объем 10 GB

Привет!

Мы группа людей которые решили помочь другим в решении их проблем, а так же пользователям с поиском самых свежих и качественных инфопродуктов. За 4 с небольшим месяца мы создали этот форум на который заходят ежедневно тысячи человек и посещаемость постоянно растёт. Мы создали панель лицензирования для защиты PHP скриптов от воровства и SEO панель для мониторинга наших сайтов и выбора верной стратегии их развития. Мы надеемся что то что мы создали пригодится Вам и возможно Вы поможете нам развиваться и совершенствоваться вместе с Вами.

Статистика форума

Темы
406.605
Сообщения
465.025
Пользователи
84.383
Новый пользователь
wazice

Приложения форума для iOS и Android


У ркн там нет власти ;)
Приватные разговоры
Помощь Пользователи
    Вы не присоединились ни к одной комнате.