За последнюю неделю опубликовано 63 новых материалов.
Инструкция новичку Путеводитель по форуму Прокси для Telegram Показать подсказки , это бомба!

Скачать Гундала / Gundala (2019) BDRemux 1080p | L бесплатно через торрент

  • Поучаствуй (в качестве покупателя) в любых пяти совместных покупках (кроме завершённых и "Моментальных") и получи группу "Новичок" навсегда -> ссылка на раздел
  • Получай до 480 рублей за каждого приглашенного пользователя!
    представляем Вам очередное расширение партнерской программы, подробности описаны тут -> ссылка
  • 90% материалов доступно к скачиванию после простой регистрации!
    Если же ты хочешь скачивать материалы без требования оставлять отзывы то получи группу "Новичок", 10 способов повышения описаны тут -> ссылка
  • К сожалению количество битых ссылок растет и мы уже не можем их оперативно восстанавливать поэтому просим помощи у каждого нашего пользователя.
    С сегодняшнего дня, за каждую восстановленную ссылку мы заплатим Вам.
    Подробнее тут -> ссылка
  • Перенесем твои заслуги с другого ресурса!
    Мы понимаем как сложно прокачивать аккаунты на форумах, вроде раскачал аккаунт, а тут появляется ресурс в 100 раз круче но тоже с системой прокачки и снова качать аккаунт...
    Предлагаем вам перенести Ваши заслуги на другом подобном ресурсе к нам.
    Подробности описаны тут -> ссылка
  • Вы можете получать по 2.5% с каждой покупки и продажи на маркете! Подробности в теме Партнёрская программа
Если Вы не хотите скачивать, Вы всегда можетепосмотретьонлайн, просто нажмите кнопку ниже :

Открыть плеер

Torrent_Bot

Торрент-Бот
Бот форума
4 Окт 2016
92
160
20


Информация о фильме
Название: Гундала
Оригинальное название: Gundala
Год выхода: 2019
Жанр: Боевик, фантастика, драма


Режиссер: Джоко Анвар


В ролях: Абимана Арьясатья, Тара Басро, Бронт Паларэ, Арио Баю, Лукман Сарди, Арсвенди Насутион, Pritt Timothy, Aqi Singgih, Донни Аламшя, Tanta Ginting


О фильме:
Ещё ребенком Санчака потерял родителей — отец погиб, отстаивая права рабочих, а мать уехала на заработки и не вернулась — с тех пор мальчик выживал самостоятельно. Нелегкая жизнь на улице научила его не только эффективно махать ногами, а и думать в первую очередь о собственной безопасности, но когда волна насилия захлёстывает город, мужчине приходится встать на сторону униженных и оскорбленных. А поскольку в результате удара молнии наш герой получил свехспособности, врагам простого народа придётся несладко.





Страна: Индонезия
Продолжительность: 02:00:07
Перевод: Любительский (многоголосый,закадровый) [@[email protected]]


Файл
Кодек: H.264
Качество: BDRemux 1080p
Видео: AVC, 1920x1080 (16:9), 23.976 fps, 27.9 Mb/s
Аудио 1: AC3, 48.0 kHz, 2 ch, 192 kb/s (Russian)
Аудио 2: DTS, 48.0 kHz, 6 ch, 1 990 kb/s (German)
Аудио 3: DTS, 48.0 kHz, 6 ch, 1 933 kb/s (Indonesian)
Субтитры: Английские

Рекламы нет | Сэмпл | Трейлер


MI
General
Unique ID : 183935193082105663685685788541916049049 (0x8A60A12EAB0394CFA52307BFAFE46E99)
Complete name : Gundala.2019.BDRemux.1080p.mkv
Format : Matroska
Format version : Version 4
File size : 26.8 GiB
Duration : 2 h 0 min
Overall bit rate mode : Variable
Overall bit rate : 32.0 Mb/s
Encoded date : UTC 2020-06-24 08:51:58
Writing application : mkvmerge v8.3.0 ('Over the Horizon') 64bit
Writing library : libebml v1.3.1 + libmatroska v1.4.2

Video
ID : 1
Format : AVC
Format/Info : Advanced Video Codec
Format profile : [email protected]
Format settings : CABAC / 3 Ref Frames
Format settings, CABAC : Yes
Format settings, ReFrames : 3 frames
Codec ID : V_MPEG4/ISO/AVC
Duration : 2 h 0 min
Bit rate mode : Variable
Bit rate : 27.9 Mb/s
Maximum bit rate : 37.0 Mb/s
Width : 1 920 pixels
Height : 1 080 pixels
Display aspect ratio : 16:9
Frame rate mode : Constant
Frame rate : 23.976 (24000/1001) FPS
Color space : YUV
Chroma subsampling : 4:2:0
Bit depth : 8 bits
Scan type : Progressive
Bits/(Pixel*Frame) : 0.561
Stream size : 23.4 GiB (87%)
Language : Indonesian
Default : Yes
Forced : No

Audio #1
ID : 2
Format : AC-3
Format/Info : Audio Coding 3
Commercial name : Dolby Digital
Codec ID : A_AC3
Duration : 2 h 0 min
Bit rate mode : Constant
Bit rate : 192 kb/s
Channel(s) : 2 channels
Channel layout : L R
Sampling rate : 48.0 kHz
Frame rate : 31.250 FPS (1536 SPF)
Bit depth : 16 bits
Compression mode : Lossy
Stream size : 165 MiB (1%)
Title : MUZOBOZ
Language : Russian
Service kind : Complete Main
Default : Yes
Forced : No

Audio #2
ID : 3
Format : DTS XLL
Format/Info : Digital Theater Systems
Commercial name : DTS-HD Master Audio
Codec ID : A_DTS
Duration : 2 h 0 min
Bit rate mode : Variable
Bit rate : 1 990 kb/s
Channel(s) : 6 channels
Channel layout : C L R Ls Rs LFE
Sampling rate : 48.0 kHz
Frame rate : 93.750 FPS (512 SPF)
Bit depth : 16 bits
Compression mode : Lossless
Stream size : 1.67 GiB (6%)
Language : German
Default : No
Forced : No

Audio #3
ID : 4
Format : DTS XLL
Format/Info : Digital Theater Systems
Commercial name : DTS-HD Master Audio
Codec ID : A_DTS
Duration : 2 h 0 min
Bit rate mode : Variable
Bit rate : 1 933 kb/s
Channel(s) : 6 channels
Channel layout : C L R Ls Rs LFE
Sampling rate : 48.0 kHz
Frame rate : 93.750 FPS (512 SPF)
Bit depth : 16 bits
Compression mode : Lossless
Stream size : 1.62 GiB (6%)
Language : Indonesian
Default : No
Forced : No

Text
ID : 5
Format : UTF-8
Codec ID : S_TEXT/UTF8
Codec ID/Info : UTF-8 Plain Text
Duration : 1 h 54 min
Bit rate : 36 b/s
Count of elements : 1059
Stream size : 30.5 KiB (0%)
Language : English
Default : No
Forced : No

Menu
00:00:00.000 : en:Chapter 01
00:10:11.069 : en:Chapter 02
00:19:56.278 : en:Chapter 03
00:30:55.437 : en:Chapter 04
00:41:31.656 : en:Chapter 05
00:53:05.849 : en:Chapter 06
01:04:59.979 : en:Chapter 07
01:16:29.210 : en:Chapter 08
01:27:29.202 : en:Chapter 09
01:37:49.822 : en:Chapter 10
01:47:07.922 : en:Chapter 11
01:55:53.113 : en:Chapter 12
Скриншоты
 

Вложения

  • 269,4 KB Просмотры: 0
    Личеров 0
    Сидеров 0
    Файлов 1
    Объем 26,8 GB

Привет!

Мы группа людей которые решили помочь другим в решении их проблем, а так же пользователям с поиском самых свежих и качественных инфопродуктов. За 4 с небольшим месяца мы создали этот форум на который заходят ежедневно тысячи человек и посещаемость постоянно растёт. Мы создали панель лицензирования для защиты PHP скриптов от воровства и SEO панель для мониторинга наших сайтов и выбора верной стратегии их развития. Мы надеемся что то что мы создали пригодится Вам и возможно Вы поможете нам развиваться и совершенствоваться вместе с Вами.

Статистика форума

Темы
406.658
Сообщения
465.103
Пользователи
84.689
Новый пользователь
Alexk2020

Приложения форума для iOS и Android


У ркн там нет власти ;)
Приватные разговоры
Помощь Пользователи
    Вы не присоединились ни к одной комнате.