За последнюю неделю опубликовано 47 новых материалов.
Инструкция новичку Путеводитель по форуму Прокси для Telegram Показать подсказки , это бомба!

Скачать Гуляй, Вася! (2017) BDRip 720p от ExKinoRay | Лицензия бесплатно через торрент

  • Поучаствуй (в качестве покупателя) в любых пяти совместных покупках (кроме завершённых и "Моментальных") и получи группу "Новичок" навсегда -> ссылка на раздел
  • Получай до 480 рублей за каждого приглашенного пользователя!
    представляем Вам очередное расширение партнерской программы, подробности описаны тут -> ссылка
  • 90% материалов доступно к скачиванию после простой регистрации!
    Если же ты хочешь скачивать материалы без требования оставлять отзывы то получи группу "Новичок", 10 способов повышения описаны тут -> ссылка
  • К сожалению количество битых ссылок растет и мы уже не можем их оперативно восстанавливать поэтому просим помощи у каждого нашего пользователя.
    С сегодняшнего дня, за каждую восстановленную ссылку мы заплатим Вам.
    Подробнее тут -> ссылка
  • Перенесем твои заслуги с другого ресурса!
    Мы понимаем как сложно прокачивать аккаунты на форумах, вроде раскачал аккаунт, а тут появляется ресурс в 100 раз круче но тоже с системой прокачки и снова качать аккаунт...
    Предлагаем вам перенести Ваши заслуги на другом подобном ресурсе к нам.
    Подробности описаны тут -> ссылка
  • Вы можете получать по 2.5% с каждой покупки и продажи на маркете! Подробности в теме Партнёрская программа
Если Вы не хотите скачивать, Вы всегда можетепосмотретьонлайн, просто нажмите кнопку ниже :

Открыть плеер

Torrent_Bot

Торрент-Бот
Бот форума
4 Окт 2016
90
166
20



Информация о фильме
Название: Гуляй, Вася!
Год выхода: 2017
Жанр:комедия
Режиссер: Роман Каримов
В ролях:Ефим Петрунин, Любовь Аксёнова, Роман Курцын, Софья Райзман, Борис Дергачев, Сергей Аброскин, Светлана Степанковская, Вера Панфилова, Наталья Тетенова, Давид Петросян


О фильме:Бедный Митя влип по полной: случайно сделал предложение, а отец девушки, как будто только этого и ждал — тут же назначил дату свадьбы. Все бы ничего, да только Митя… уже женат! Он возвращается в свой город, чтобы экстренно развестись. Но Василиса (или просто Вася), с которой они давно не живут, — циничная стерва, и за развод придется побороться. Простейший способ ускорить процесс — предъявить первую попавшуюся «невесту». Кто же знал, что у нее имеется настоящий жених, местный качок… Окончательно все запутывается, когда разруливать ситуацию берутся бывшие одноклассники Мити — подкаблучник Паша и аферист Гарик.



Страна: Россия
Продолжительность: 01:36:02
Перевод: Не требуется

Сохранены оригинальные чаптеры как на Blu-Ray.

Файл
Качество: BDRip (720р)
Видео: MPEG-4 AVC, 1280x720 (16:9), 24.000 fps, ~4250 kbps avg, 0.192 bit/pixel
Аудио: 48 kHz, AC3 Dolby Digital, 3/2 (L,C,R,l,r) + LFE ch, ~640.00 kbps avg

MI
General
Unique ID : 212702428344520147232312078456049964210 (0xA004FF62AA40A6D09F5ACBF81B6914B2)
Complete name : D:Guliay.Vasyia.2017.BDRip.720p.ExKinoRay.mkv
Format : Matroska
Format version : Version 2
File size : 3.28 GiB
Duration : 1 h 36 min
Overall bit rate : 4 886 kb/s
Movie name : Гуляй Вася 2017 from ExKinoRay
Encoded date : UTC 2017-05-13 10:31:35
Writing application : mkvmerge v5.8.0 ('No Sleep / Pillow') built on Sep 2 2012 15:37:04
Writing library : libebml v1.2.3 + libmatroska v1.3.0

Video
ID : 1
Format : AVC
Format/Info : Advanced Video Codec
Format profile : [email protected]
Format settings, CABAC : Yes
Format settings, ReFrames : 9 frames
Codec ID : V_MPEG4/ISO/AVC
Duration : 1 h 36 min
Bit rate : 4 250 kb/s
Width : 1 280 pixels
Height : 720 pixels
Display aspect ratio : 16:9
Frame rate mode : Constant
Frame rate : 24.000 FPS
Color space : YUV
Chroma subsampling : 4:2:0
Bit depth : 8 bits
Scan type : Progressive
Bits/(Pixel*Frame) : 0.192
Stream size : 2.78 GiB (85%)
Title : Enigma
Writing library : x264 core 144 r2525 40bb568
Encoding settings : cabac=1 / ref=9 / deblock=1:-2:-2 / analyse=0x3:0x113 / me=umh / subme=10 / psy=1 / psy_rd=1.05:0.10 / mixed_ref=1 / me_range=32 / chroma_me=1 / trellis=2 / 8x8dct=1 / cqm=0 / deadzone=21,11 / fast_pskip=1 / chroma_qp_offset=-3 / threads=12 / lookahead_threads=3 / sliced_threads=0 / nr=0 / decimate=0 / interlaced=0 / bluray_compat=0 / constrained_intra=0 / bframes=10 / b_pyramid=2 / b_adapt=2 / b_bias=0 / direct=3 / weightb=1 / open_gop=0 / weightp=2 / keyint=240 / keyint_min=24 / scenecut=40 / intra_refresh=0 / rc_lookahead=40 / rc=2pass / mbtree=0 / bitrate=4250 / ratetol=1.0 / qcomp=0.60 / qpmin=0 / qpmax=51 / qpstep=4 / cplxblur=20.0 / qblur=0.5 / vbv_maxrate=50000 / vbv_bufsize=62500 / nal_hrd=none / filler=0 / ip_ratio=1.40 / pb_ratio=1.30 / aq=1:1.00
Language : English
Default : Yes
Forced : No
Color range : Limited
Color primaries : BT.709
Transfer characteristics : BT.709
Matrix coefficients : BT.709

Audio
ID : 2
Format : AC-3
Format/Info : Audio Coding 3
Mode extension : CM (complete main)
Format settings, Endianness : Big
Codec ID : A_AC3
Duration : 1 h 36 min
Bit rate mode : Constant
Bit rate : 640 kb/s
Channel(s) : 6 channels
Channel positions : Front: L C R, Side: L R, LFE
Sampling rate : 48.0 kHz
Frame rate : 31.250 FPS (1536 spf)
Compression mode : Lossy
Stream size : 440 MiB (13%)
Title : Лицензия
Language : Russian
Default : Yes
Forced : No

Menu
00:00:00.000 : :Chapter 01
00:00:38.500 : :Chapter 02
00:10:37.208 : :Chapter 03
00:21:31.958 : :Chapter 04
00:33:54.250 : :Chapter 05
00:44:16.250 : :Chapter 06
00:58:07.541 : :Chapter 07
01:09:39.916 : :Chapter 08
01:21:14.416 : :Chapter 09



Релиз от:

Автор релиза:
 

Вложения

  • 17,4 KB Просмотры: 0
    Личеров 0
    Сидеров 0
    Файлов 1
    Объем 3,3 GB

Привет!

Мы группа людей которые решили помочь другим в решении их проблем, а так же пользователям с поиском самых свежих и качественных инфопродуктов. За 4 с небольшим месяца мы создали этот форум на который заходят ежедневно тысячи человек и посещаемость постоянно растёт. Мы создали панель лицензирования для защиты PHP скриптов от воровства и SEO панель для мониторинга наших сайтов и выбора верной стратегии их развития. Мы надеемся что то что мы создали пригодится Вам и возможно Вы поможете нам развиваться и совершенствоваться вместе с Вами.

Статистика форума

Темы
410.885
Сообщения
469.444
Пользователи
87.884
Новый пользователь
SOOOOOFFFFKKKKAAAAA

Приложения форума для iOS и Android


У ркн там нет власти ;)
Приватные разговоры
Помощь Пользователи
    Вы не присоединились ни к одной комнате.