За последнюю неделю опубликовано 82 новых материалов.
Инструкция новичку Путеводитель по форуму Прокси для Telegram Показать подсказки , это бомба!

Скачать Гуляй, Вася! (2017) BDRip 1080p от OlLanDGroup | Лицензия бесплатно через торрент

  • Поучаствуй (в качестве покупателя) в любых пяти совместных покупках (кроме завершённых и "Моментальных") и получи группу "Новичок" навсегда -> ссылка на раздел
  • Получай до 480 рублей за каждого приглашенного пользователя!
    представляем Вам очередное расширение партнерской программы, подробности описаны тут -> ссылка
  • 90% материалов доступно к скачиванию после простой регистрации!
    Если же ты хочешь скачивать материалы без требования оставлять отзывы то получи группу "Новичок", 10 способов повышения описаны тут -> ссылка
  • К сожалению количество битых ссылок растет и мы уже не можем их оперативно восстанавливать поэтому просим помощи у каждого нашего пользователя.
    С сегодняшнего дня, за каждую восстановленную ссылку мы заплатим Вам.
    Подробнее тут -> ссылка
  • Перенесем твои заслуги с другого ресурса!
    Мы понимаем как сложно прокачивать аккаунты на форумах, вроде раскачал аккаунт, а тут появляется ресурс в 100 раз круче но тоже с системой прокачки и снова качать аккаунт...
    Предлагаем вам перенести Ваши заслуги на другом подобном ресурсе к нам.
    Подробности описаны тут -> ссылка
  • Вы можете получать по 2.5% с каждой покупки и продажи на маркете! Подробности в теме Партнёрская программа
Если Вы не хотите скачивать, Вы всегда можетепосмотретьонлайн, просто нажмите кнопку ниже :

Открыть плеер

Torrent_Bot

Торрент-Бот
Бот форума
4 Окт 2016
86
174
20

Информация о фильме

Оригинальное название: Гуляй, Вася!
Год выпуска: 2017
Жанр:Комедия
Выпущено: Россия, Фильмы навсегда, Инвада фильм, Yellow, Black & White
Режиссер: Роман Каримов
В ролях: Ефим Петрунин, Любовь Аксёнова, Роман Курцын, Софья Райзман, Борис Дергачев, Сергей Аброскин, Светлана Степанковская, Вера Панфилова, Наталья Тетенова, Давид Петросян


О фильме: Бедный Митя влип по полной: случайно сделал предложение, а отец девушки, как будто только этого и ждал - тут же назначил дату свадьбы. Все бы ничего, да только Митя... уже женат! Он возвращается в свой город, чтобы экстренно развестись. Но Василиса (или просто Вася), с которой они давно не живут, - циничная стерва, и за развод придется побороться. Простейший способ ускорить процесс - предъявить первую попавшуюся «невесту». Кто же знал, что у нее имеется настоящий жених, местный качок... Окончательно все запутывается, когда разруливать ситуацию берутся бывшие одноклассники Мити - подкаблучник Паша и аферист Гарик.







Качество: BDRip (1080p)
Видео: MPEG-4 AVC, 11492 Кбит/с, 1920x1080, 24 кадр/с
Аудио: Русский (AC3, 6 ch, 640 Кбит/с), (DTS, 6 ch, 1509 Кбит/с)
Размер: 9.15 ГБ
Продолжительность: 01:36:02
Язык: Русский


Озвучивание - (Лицензия)
Сохранены оригинальные чаптеры как на Blu-Ray.


x264
x264 [info]: frame I:1069 Avg QP:15.48 size:196956
x264 [info]: frame P:40380 Avg QP:18.02 size: 96916
x264 [info]: frame B:96855 Avg QP:19.47 size: 42824
x264 [info]: consecutive B-frames: 3.7% 12.7% 11.4% 44.1% 18.1% 5.3% 2.2% 0.5% 1.4% 0.1% 0.5%
x264 [info]: mb I I16..4: 13.8% 60.5% 25.7%
x264 [info]: mb P I16..4: 8.8% 26.2% 5.4% P16..4: 27.8% 21.3% 4.5% 0.4% 0.0% skip: 5.6%
x264 [info]: mb B I16..4: 4.0% 6.1% 1.3% B16..8: 32.7% 13.6% 1.8% direct:14.2% skip:26.3% L0:43.3% L1:40.9% BI:15.8%
x264 [info]: 8x8 transform intra:60.2% inter:61.1%
x264 [info]: direct mvs spatial:98.4% temporal:1.6%
x264 [info]: coded y,uvDC,uvAC intra: 74.3% 89.1% 65.9% inter: 30.4% 47.8% 24.9%
x264 [info]: i16 v,h,dc,p: 13% 14% 28% 45%
x264 [info]: i8 v,h,dc,ddl,ddr,vr,hd,vl,hu: 14% 10% 19% 7% 8% 10% 10% 10% 13%
x264 [info]: i4 v,h,dc,ddl,ddr,vr,hd,vl,hu: 19% 11% 34% 4% 6% 7% 6% 5% 7%
x264 [info]: i8c dc,h,v,p: 46% 23% 18% 13%
x264 [info]: Weighted P-Frames: Y:1.3% UV:0.6%
x264 [info]: ref P L0: 60.7% 11.9% 20.2% 6.6% 0.6% 0.0%
x264 [info]: ref B L0: 91.1% 7.3% 1.6%
x264 [info]: ref B L1: 95.6% 4.4%
x264 [info]: kb/s:11483.24

Инфо-файл
Общее
Уникальный идентификатор : 220704989332705200193514321944231444275 (0xA60A3C1ABFA886B4B47795BAF27E7F33)
Полное имя : D:ЗагрузкиGulyay, Vasya!2016.x264.BDRip.(1080p).OlLanDGroup.mkv
Формат : Matroska
Версия формата : Version 2
Размер файла : 9,15 Гбайт
Продолжительность : 1 ч. 36 м.
Общий поток : 13,6 Мбит/сек
Название фильма : Гуляй, Вася!2017.Rip by: ollan
Дата кодирования : UTC 2017-05-13 18:14:59
Программа кодирования : mkvmerge v5.6.0 ('Kenya Kane') built on May 27 2012 16:44:04
Библиотека кодирования : libebml v1.2.3 + libmatroska v1.3.0
Attachements : Cover - Gulyay, Vasya!.png

Видео
Идентификатор : 1
Формат : AVC
Формат/Информация : Advanced Video Codec
Профиль формата : [email protected]
Параметр CABAC формата : Да
Параметр ReFrames формата : 4 кадра
Идентификатор кодека : V_MPEG4/ISO/AVC
Продолжительность : 1 ч. 36 м.
Битрейт : 11,5 Мбит/сек
Ширина : 1920 пикселей
Высота : 1080 пикселей
Соотношение сторон : 16:9
Режим частоты кадров : Постоянный
Частота кадров : 24,000 кадра/сек
Цветовое пространство : YUV
Субдискретизация насыщенности : 4:2:0
Битовая глубина : 8 бит
Тип развёртки : Прогрессивная
Бит/(Пиксели*Кадры) : 0.231
Размер потока : 7,52 Гбайт (82%)
Библиотека кодирования : x264 core 146 r2538 121396c
Настройки программы : cabac=1 / ref=4 / deblock=1:-2:-3 / analyse=0x3:0x133 / me=umh / subme=11 / psy=1 / psy_rd=0.95:0.05 / mixed_ref=1 / me_range=64 / chroma_me=1 / trellis=2 / 8x8dct=1 / cqm=0 / deadzone=21,11 / fast_pskip=0 / chroma_qp_offset=-3 / threads=12 / lookahead_threads=3 / sliced_threads=0 / nr=0 / decimate=0 / interlaced=fake / bluray_compat=0 / constrained_intra=0 / bframes=10 / b_pyramid=2 / b_adapt=2 / b_bias=0 / direct=3 / weightb=1 / open_gop=0 / weightp=2 / keyint=240 / keyint_min=23 / scenecut=40 / intra_refresh=0 / rc_lookahead=40 / rc=2pass / mbtree=0 / bitrate=11492 / ratetol=1.0 / qcomp=0.60 / qpmin=0 / qpmax=69 / qpstep=4 / cplxblur=20.0 / qblur=0.5 / vbv_maxrate=50000 / vbv_bufsize=62500 / nal_hrd=none / filler=0 / ip_ratio=1.40 / pb_ratio=1.30 / aq=1:1.00
Язык : Russian
Default : Да
Forced : Нет

Аудио #1
Идентификатор : 2
Формат : AC-3
Формат/Информация : Audio Coding 3
Расширение режима : CM (complete main)
Параметр Endianness формата : Big
Идентификатор кодека : A_AC3
Продолжительность : 1 ч. 36 м.
Вид битрейта : Постоянный
Битрейт : 640 Кбит/сек
Каналы : 6 каналов
Расположение каналов : Front: L C R, Side: L R, LFE
Частота : 48,0 КГц
Частота кадров : 31,250 кадров/сек (1536 spf)
Метод сжатия : С потерями
Размер потока : 440 Мбайт (5%)
Заголовок : Лицензия
Язык : Russian
Default : Да
Forced : Нет

Аудио #2
Идентификатор : 3
Формат : DTS
Формат/Информация : Digital Theater Systems
Режим : 16
Параметр Endianness формата : Big
Идентификатор кодека : A_DTS
Продолжительность : 1 ч. 36 м.
Вид битрейта : Постоянный
Битрейт : 1509 Кбит/сек
Каналы : 6 каналов
Расположение каналов : Front: L C R, Side: L R, LFE
Частота : 48,0 КГц
Частота кадров : 93,750 кадра/сек (512 spf)
Битовая глубина : 24 бит
Метод сжатия : С потерями
Размер потока : 1,01 Гбайт (11%)
Заголовок : Лицензия
Язык : Russian
Default : Нет
Forced : Нет

Меню
00:00:00.000 : ru:Chapter 01
00:00:38.500 : ru:Chapter 02
00:10:37.208 : ru:Chapter 03
00:21:31.958 : ru:Chapter 04
00:33:54.250 : ru:Chapter 05
00:44:16.250 : ru:Chapter 06
00:58:07.541 : ru:Chapter 07
01:09:39.916 : ru:Chapter 08
01:21:14.416 : ru:Chapter 09

Скриншоты



Релиз от: Rip by:
 

Вложения

  • 23,9 KB Просмотры: 1
    Личеров 0
    Сидеров 0
    Файлов 1
    Объем 9,1 GB

Привет!

Мы группа людей которые решили помочь другим в решении их проблем, а так же пользователям с поиском самых свежих и качественных инфопродуктов. За 4 с небольшим месяца мы создали этот форум на который заходят ежедневно тысячи человек и посещаемость постоянно растёт. Мы создали панель лицензирования для защиты PHP скриптов от воровства и SEO панель для мониторинга наших сайтов и выбора верной стратегии их развития. Мы надеемся что то что мы создали пригодится Вам и возможно Вы поможете нам развиваться и совершенствоваться вместе с Вами.

Статистика форума

Темы
411.626
Сообщения
470.246
Пользователи
90.399
Новый пользователь
Gaser

Приложения форума для iOS и Android


У ркн там нет власти ;)
Приватные разговоры
Помощь Пользователи
    Вы не присоединились ни к одной комнате.