За последнюю неделю опубликовано 62 новых материалов.
Инструкция новичку Путеводитель по форуму Прокси для Telegram Показать подсказки , это бомба!

Скачать Гу-га (1989) DVDRip-AVC от KORSAR бесплатно через торрент

  • Поучаствуй (в качестве покупателя) в любых пяти совместных покупках (кроме завершённых и "Моментальных") и получи группу "Новичок" навсегда -> ссылка на раздел
  • Получай до 480 рублей за каждого приглашенного пользователя!
    представляем Вам очередное расширение партнерской программы, подробности описаны тут -> ссылка
  • 90% материалов доступно к скачиванию после простой регистрации!
    Если же ты хочешь скачивать материалы без требования оставлять отзывы то получи группу "Новичок", 10 способов повышения описаны тут -> ссылка
  • К сожалению количество битых ссылок растет и мы уже не можем их оперативно восстанавливать поэтому просим помощи у каждого нашего пользователя.
    С сегодняшнего дня, за каждую восстановленную ссылку мы заплатим Вам.
    Подробнее тут -> ссылка
  • Перенесем твои заслуги с другого ресурса!
    Мы понимаем как сложно прокачивать аккаунты на форумах, вроде раскачал аккаунт, а тут появляется ресурс в 100 раз круче но тоже с системой прокачки и снова качать аккаунт...
    Предлагаем вам перенести Ваши заслуги на другом подобном ресурсе к нам.
    Подробности описаны тут -> ссылка
  • Вы можете получать по 2.5% с каждой покупки и продажи на маркете! Подробности в теме Партнёрская программа
Если Вы не хотите скачивать, Вы всегда можетепосмотретьонлайн, просто нажмите кнопку ниже :

Открыть плеер

Torrent_Bot

Торрент-Бот
Бот форума
4 Окт 2016
92
160
20


Гу-га
Жанр: драма, военный
Год выпуска: 1989
Режиссер: Виллен Новак
В ролях: Алексей Горбунов, Алексей Волков, Андрей Толубеев, Александр Соловьев, Вера Сотникова, Юрий Орлов, Александр Завьялов, Константин Шафоренко, Сергей Скрипкин, Саидмурад Зияутдинов, Наталья Андросик, А. Мухамедова, Рудольф Мухин, Николай Волков, Владимир Носик, Михаил Крылов, Рустам Уразаев, Павел Степанов, Николай Холошин, Александр Калугин, Зоя Буряк

О фильме:
Фильм приоткрывает завесу над еще одним порождением сталинского режима - батальонами штрафников времен Великой Отечественной войны, месяц службы в которых приравнивался к десяти годам тюрьмы. «Гу-га» - фильм о тех, кто, проливая свою кровь, ежедневно рискуя собственной жизнью, расплачивался за ошибки штабных.
По повести Мориса Симашко



Страна: СССР
Производство: Одесская киностудия, Госкино
Продолжительность: 02:06:22
Перевод: Не требуется

Файл
Формат: MKV
Качество: DVDRip-AVC
Видео: MPEG-4 AVC, [email protected], 25 fps, 3553 Кбит/с
Аудио: Русский, AC3, 6 ch, 384 Кбит/с
Cубтитры: нет
Навигация по главам: есть

Mediainfo
x264 [info]: frame I:1036 Avg QP:18.01 size: 82983
x264 [info]: frame P:44851 Avg QP:19.72 size: 44329
x264 [info]: frame B:143683 Avg QP:21.85 size: 9004
x264 [info]: consecutive B-frames: 3.9% 1.9% 7.9% 18.5% 25.2% 40.8% 1.5% 0.1% 0.0% 0.1% 0.0%

General
Unique ID : 263558086744974261835366486852399782669 (0xC64770EE3513D050F5D9439AFE6FDB0D)
Complete name : S:FILMSГу-га (1989) DVDRip-AVC - KORSAR.mkv
Format : Matroska
Format version : Version 4 / Version 2
File size : 3.48 GiB
Duration : 2 h 6 min
Overall bit rate : 3 939 kb/s
Movie name : Гу-га (1989)_rip_by_Cthulhu
Encoded date : UTC 2020-05-06 09:05:19
Writing application : mkvmerge v37.0.0 ('Leave It') 64-bit
Writing library : libebml v1.3.9 + libmatroska v1.5.2
Cover : Yes
Attachments : cover4.jpg

Video
ID : 1
Format : AVC
Format/Info : Advanced Video Codec
Format profile : [email protected]
Format settings : CABAC / 16 Ref Frames
Format settings, CABAC : Yes
Format settings, ReFrames : 16 frames
Codec ID : V_MPEG4/ISO/AVC
Duration : 2 h 6 min
Bit rate : 3 553 kb/s
Width : 698 pixels
Height : 572 pixels
Display aspect ratio : 4:3
Original display aspect rat : 4:3
Frame rate mode : Constant
Frame rate : 25.000 FPS
Color space : YUV
Chroma subsampling : 4:2:0
Bit depth : 8 bits
Scan type : Progressive
Bits/(Pixel*Frame) : 0.356
Stream size : 3.14 GiB (90%)
Writing library : x264 core 152 r2851kMod ba24899
Encoding settings : cabac=1 / ref=16 / deblock=1:-1:-1 / analyse=0x3:0x133 / me=umh / subme=11 / psy=1 / fade_compensate=0.00 / psy_rd=1.00:0.00 / mixed_ref=1 / me_range=48 / chroma_me=1 / trellis=2 / 8x8dct=1 / cqm=0 / deadzone=21,11 / fast_pskip=0 / chroma_qp_offset=-2 / threads=18 / lookahead_threads=4 / sliced_threads=0 / nr=0 / decimate=1 / interlaced=0 / bluray_compat=0 / constrained_intra=0 / bframes=10 / b_pyramid=2 / b_adapt=2 / b_bias=0 / direct=3 / weightb=1 / open_gop=0 / weightp=2 / keyint=250 / keyint_min=25 / scenecut=40 / intra_refresh=0 / rc_lookahead=60 / rc=crf / mbtree=0 / crf=18.0000 / qcomp=0.60 / qpmin=0 / qpmax=39 / qpstep=4 / vbv_maxrate=50000 / vbv_bufsize=62500 / crf_max=0.0 / nal_hrd=none / filler=0 / ip_ratio=1.40 / pb_ratio=1.30 / aq=2:1.00
Language : Russian
Default : Yes
Forced : No
Color range : Limited
Color primaries : BT.601 PAL
Transfer characteristics : BT.470 System B/G
Matrix coefficients : BT.470 System B/G

Audio
ID : 2
Format : AC-3
Format/Info : Audio Coding 3
Commercial name : Dolby Digital
Codec ID : A_AC3
Duration : 2 h 6 min
Bit rate mode : Constant
Bit rate : 384 kb/s
Channel(s) : 6 channels
Channel layout : L R C LFE Ls Rs
Sampling rate : 48.0 kHz
Frame rate : 31.250 FPS (1536 SPF)
Bit depth : 16 bits
Compression mode : Lossy
Stream size : 347 MiB (10%)
Language : Russian
Service kind : Complete Main
Default : Yes
Forced : No

Menu
00:00:00.000 : en:Chapter 1
00:05:23.400 : en:Chapter 2
00:10:48.120 : en:Chapter 3
00:16:03.000 : en:Chapter 4
00:21:42.720 : en:Chapter 5
00:24:44.880 : en:Chapter 6
00:30:17.760 : en:Chapter 7
00:35:41.640 : en:Chapter 8
00:39:17.040 : en:Chapter 9
00:47:32.160 : en:Chapter 10
00:52:38.640 : en:Chapter 11
00:58:54.120 : en:Chapter 12
01:02:43.320 : en:Chapter 13
01:07:12.720 : en:Chapter 14
01:12:29.880 : en:Chapter 15
01:18:22.800 : en:Chapter 16
01:23:58.320 : en:Chapter 17
01:28:56.520 : en:Chapter 18
01:33:54.720 : en:Chapter 19
01:40:59.640 : en:Chapter 20
01:44:59.400 : en:Chapter 21
01:50:31.200 : en:Chapter 22
01:55:09.360 : en:Chapter 23
02:00:16.800 : en:Chapter 24
02:06:22.320 : en:Chapter 25
Скриншоты

Релиз от: Cthulhu
 

Вложения

  • 18,3 KB Просмотры: 0
    Личеров 0
    Сидеров 0
    Файлов 1
    Объем 3,5 GB

Привет!

Мы группа людей которые решили помочь другим в решении их проблем, а так же пользователям с поиском самых свежих и качественных инфопродуктов. За 4 с небольшим месяца мы создали этот форум на который заходят ежедневно тысячи человек и посещаемость постоянно растёт. Мы создали панель лицензирования для защиты PHP скриптов от воровства и SEO панель для мониторинга наших сайтов и выбора верной стратегии их развития. Мы надеемся что то что мы создали пригодится Вам и возможно Вы поможете нам развиваться и совершенствоваться вместе с Вами.

Статистика форума

Темы
406.656
Сообщения
465.104
Пользователи
84.661
Новый пользователь
tomik

Приложения форума для iOS и Android


У ркн там нет власти ;)
Приватные разговоры
Помощь Пользователи
    Вы не присоединились ни к одной комнате.