За последнюю неделю опубликовано 64 новых материалов.
Инструкция новичку Путеводитель по форуму Прокси для Telegram Показать подсказки , это бомба!

Скачать Грязные танцы / Dirty Dancing (1987) DVDRip-AVC | P, P2 | Fullscreen бесплатно через торрент

  • Поучаствуй (в качестве покупателя) в любых пяти совместных покупках (кроме завершённых и "Моментальных") и получи группу "Новичок" навсегда -> ссылка на раздел
  • Получай до 480 рублей за каждого приглашенного пользователя!
    представляем Вам очередное расширение партнерской программы, подробности описаны тут -> ссылка
  • 90% материалов доступно к скачиванию после простой регистрации!
    Если же ты хочешь скачивать материалы без требования оставлять отзывы то получи группу "Новичок", 10 способов повышения описаны тут -> ссылка
  • К сожалению количество битых ссылок растет и мы уже не можем их оперативно восстанавливать поэтому просим помощи у каждого нашего пользователя.
    С сегодняшнего дня, за каждую восстановленную ссылку мы заплатим Вам.
    Подробнее тут -> ссылка
  • Перенесем твои заслуги с другого ресурса!
    Мы понимаем как сложно прокачивать аккаунты на форумах, вроде раскачал аккаунт, а тут появляется ресурс в 100 раз круче но тоже с системой прокачки и снова качать аккаунт...
    Предлагаем вам перенести Ваши заслуги на другом подобном ресурсе к нам.
    Подробности описаны тут -> ссылка
  • Вы можете получать по 2.5% с каждой покупки и продажи на маркете! Подробности в теме Партнёрская программа
Если Вы не хотите скачивать, Вы всегда можетепосмотретьонлайн, просто нажмите кнопку ниже :

Открыть плеер

Torrent_Bot

Торрент-Бот
Бот форума
4 Окт 2016
92
160
20



Название: Грязные танцы
Оригинальное название: Dirty Dancing
Год выхода: 1987
Жанр: Драма, мелодрама, музыка
Режиссер: Эмиль Ардолино
В ролях: Пэтрик Суэйзи, Дженнифер Грей, Синтия Роудс, Джерри Орбак, Джек Уэстон, Келли Бишоп, Лонни Прайс, Джейн Бракер, Макс Кэнтор, Чарлз "Хони" Коулз

О фильме:
Лето 1963 года. Cемнадцатилетняя девушка, которую родные называют Бэйби, приезжает с родителями в пансионат в горах Катскилл. Однажды вечером внимание Бэйби привлекает выступление танцевальной пары, нанятой для увеселения богатых постояльцев. Вскоре Бэби знакомится с Джонни Кастлом, профессиональным танцором, который берётся учить её танцевать. Девушка начинает репетировать с Джонни, и между молодыми людьми возникает глубокое чувство.



Страна: США
Продолжительность: 01:40:29
Перевод: Профессиональный (многоголосый закадровый), профессиональный (двухголосый закадровый)

Формат: MKV
Качество: DVDRip-AVC
Видео: AVC/H.264, 718x480(4:3)@718x540, 23.976 fps, ~2170 Kbps
Аудио 1: AC3, 2 ch, 192 kbps - Русский (DVO НТВ)
Аудио 2: AC3, 6 ch, 384 kbps - Русский (MVO СТС)
Аудио 3: AC3, 6 ch, 384 kbps - Английский
Субтитры: русские, английские

MediaInfo
General
Unique ID : 301309892294450309175076005228446878572 (0xE2AE2CA632FA3339A5CB0FBFD9220B6C)
Complete name : D:uTorrentUploadDirty.Dancing.1987.DVDRip.x264.Fullscreen.mkv
Format : Matroska
Format version : Version 4
File size : 2.20 GiB
Duration : 1 h 40 min
Overall bit rate : 3 132 kb/s
Encoded date : UTC 2019-12-24 11:58:36
Writing application : mkvmerge v37.0.0 ('Leave It') 64-bit
Writing library : libebml v1.3.9 + libmatroska v1.5.2

Video
ID : 1
Format : AVC
Format/Info : Advanced Video Codec
Format profile : [email protected]
Format settings : CABAC / 10 Ref Frames
Format settings, CABAC : Yes
Format settings, Reference frames : 10 frames
Codec ID : V_MPEG4/ISO/AVC
Duration : 1 h 40 min
Bit rate : 2 170 kb/s
Width : 718 pixels
Height : 480 pixels
Display aspect ratio : 4:3
Frame rate mode : Constant
Frame rate : 23.976 (24000/1001) FPS
Color space : YUV
Chroma subsampling : 4:2:0
Bit depth : 8 bits
Scan type : Progressive
Bits/(Pixel*Frame) : 0.263
Stream size : 1.52 GiB (69%)
Writing library : x264 core 159 r2991 1771b55
Encoding settings : cabac=1 / ref=10 / deblock=1:-3:-2 / analyse=0x3:0x113 / me=umh / subme=11 / psy=1 / psy_rd=1.00:0.00 / mixed_ref=1 / me_range=32 / chroma_me=1 / trellis=2 / 8x8dct=1 / cqm=0 / deadzone=21,11 / fast_pskip=0 / chroma_qp_offset=-2 / threads=3 / lookahead_threads=1 / sliced_threads=0 / nr=0 / decimate=1 / interlaced=0 / bluray_compat=0 / constrained_intra=0 / bframes=8 / b_pyramid=2 / b_adapt=2 / b_bias=0 / direct=1 / weightb=1 / open_gop=0 / weightp=2 / keyint=240 / keyint_min=23 / scenecut=40 / intra_refresh=0 / rc_lookahead=60 / rc=crf / mbtree=0 / crf=18.0 / qcomp=0.65 / qpmin=0 / qpmax=69 / qpstep=4 / vbv_maxrate=50000 / vbv_bufsize=62500 / crf_max=0.0 / nal_hrd=none / filler=0 / ip_ratio=1.40 / pb_ratio=1.30 / aq=1:0.90
Language : English
Default : Yes
Forced : No

Audio #1
ID : 2
Format : AC-3
Format/Info : Audio Coding 3
Commercial name : Dolby Digital
Codec ID : A_AC3
Duration : 1 h 40 min
Bit rate mode : Constant
Bit rate : 192 kb/s
Channel(s) : 2 channels
Channel layout : L R
Sampling rate : 48.0 kHz
Frame rate : 31.250 FPS (1536 SPF)
Bit depth : 16 bits
Compression mode : Lossy
Stream size : 138 MiB (6%)
Title : DVO (НТВ)
Language : Russian
Service kind : Complete Main
Default : Yes
Forced : No

Audio #2
ID : 3
Format : AC-3
Format/Info : Audio Coding 3
Commercial name : Dolby Digital
Codec ID : A_AC3
Duration : 1 h 40 min
Bit rate mode : Constant
Bit rate : 384 kb/s
Channel(s) : 6 channels
Channel layout : L R C LFE Ls Rs
Sampling rate : 48.0 kHz
Frame rate : 31.250 FPS (1536 SPF)
Bit depth : 16 bits
Compression mode : Lossy
Stream size : 276 MiB (12%)
Title : MVO (СТС)
Language : Russian
Service kind : Complete Main
Default : No
Forced : No

Audio #3
ID : 4
Format : AC-3
Format/Info : Audio Coding 3
Commercial name : Dolby Digital
Codec ID : A_AC3
Duration : 1 h 40 min
Bit rate mode : Constant
Bit rate : 384 kb/s
Channel(s) : 6 channels
Channel layout : L R C LFE Ls Rs
Sampling rate : 48.0 kHz
Frame rate : 31.250 FPS (1536 SPF)
Bit depth : 16 bits
Compression mode : Lossy
Stream size : 276 MiB (12%)
Title : Original
Language : English
Service kind : Complete Main
Default : No
Forced : No

Text #1
ID : 5
Format : UTF-8
Codec ID : S_TEXT/UTF8
Codec ID/Info : UTF-8 Plain Text
Duration : 1 h 33 min
Bit rate : 64 b/s
Count of elements : 831
Stream size : 44.0 KiB (0%)
Language : Russian
Default : No
Forced : No

Text #2
ID : 6
Format : UTF-8
Codec ID : S_TEXT/UTF8
Codec ID/Info : UTF-8 Plain Text
Duration : 1 h 34 min
Bit rate : 43 b/s
Count of elements : 798
Stream size : 29.9 KiB (0%)
Language : English
Default : No
Forced : No

Menu
00:00:00.083 : en:Chapter 01
00:02:05.258 : en:Chapter 02
00:03:55.401 : en:Chapter 03
00:05:43.609 : en:Chapter 04
00:07:53.473 : en:Chapter 05
00:10:21.954 : en:Chapter 06
00:12:39.859 : en:Chapter 07
00:13:24.069 : en:Chapter 08
00:18:16.295 : en:Chapter 09
00:20:52.784 : en:Chapter 10
00:22:31.183 : en:Chapter 11
00:23:57.636 : en:Chapter 12
00:25:46.111 : en:Chapter 13
00:29:03.441 : en:Chapter 14
00:29:44.883 : en:Chapter 15
00:31:01.926 : en:Chapter 16
00:33:29.007 : en:Chapter 17
00:35:38.002 : en:Chapter 18
00:39:36.540 : en:Chapter 19
00:41:25.983 : en:Chapter 20
00:44:50.754 : en:Chapter 21
00:45:24.722 : en:Chapter 22
00:47:05.355 : en:Chapter 23
00:50:35.866 : en:Chapter 24
00:53:52.762 : en:Chapter 25
00:59:28.698 : en:Chapter 26
01:00:34.297 : en:Chapter 27
01:03:06.115 : en:Chapter 28
01:03:41.017 : en:Chapter 29
01:05:46.976 : en:Chapter 30
01:06:39.362 : en:Chapter 31
01:09:33.035 : en:Chapter 32
01:11:09.932 : en:Chapter 33
01:12:44.126 : en:Chapter 34
01:15:14.643 : en:Chapter 35
01:15:59.454 : en:Chapter 36
01:17:16.164 : en:Chapter 37
01:19:22.424 : en:Chapter 38
01:20:57.118 : en:Chapter 39
01:23:18.994 : en:Chapter 40
01:25:45.874 : en:Chapter 41
01:28:48.756 : en:Chapter 42
01:29:38.973 : en:Chapter 43
01:37:07.655 : en:Chapter 44
Сравнения:

Скриншоты

 

Вложения

  • 11,9 KB Просмотры: 0
    Личеров 0
    Сидеров 0
    Файлов 1
    Объем 2,2 GB

Привет!

Мы группа людей которые решили помочь другим в решении их проблем, а так же пользователям с поиском самых свежих и качественных инфопродуктов. За 4 с небольшим месяца мы создали этот форум на который заходят ежедневно тысячи человек и посещаемость постоянно растёт. Мы создали панель лицензирования для защиты PHP скриптов от воровства и SEO панель для мониторинга наших сайтов и выбора верной стратегии их развития. Мы надеемся что то что мы создали пригодится Вам и возможно Вы поможете нам развиваться и совершенствоваться вместе с Вами.

Статистика форума

Темы
406.656
Сообщения
465.099
Пользователи
84.679
Новый пользователь
Cheza

Приложения форума для iOS и Android


У ркн там нет власти ;)
Приватные разговоры
Помощь Пользователи
    Вы не присоединились ни к одной комнате.