За последнюю неделю опубликовано 85 новых материалов.
Инструкция новичку Путеводитель по форуму Прокси для Telegram Показать подсказки , это бомба!

Скачать Гримм / Grimm [S02] (2012-2013) BDRip 720p от SuperMin | LostFilm бесплатно через торрент

  • Поучаствуй (в качестве покупателя) в любых пяти совместных покупках (кроме завершённых и "Моментальных") и получи группу "Новичок" навсегда -> ссылка на раздел
  • Получай до 480 рублей за каждого приглашенного пользователя!
    представляем Вам очередное расширение партнерской программы, подробности описаны тут -> ссылка
  • 90% материалов доступно к скачиванию после простой регистрации!
    Если же ты хочешь скачивать материалы без требования оставлять отзывы то получи группу "Новичок", 10 способов повышения описаны тут -> ссылка
  • К сожалению количество битых ссылок растет и мы уже не можем их оперативно восстанавливать поэтому просим помощи у каждого нашего пользователя.
    С сегодняшнего дня, за каждую восстановленную ссылку мы заплатим Вам.
    Подробнее тут -> ссылка
  • Перенесем твои заслуги с другого ресурса!
    Мы понимаем как сложно прокачивать аккаунты на форумах, вроде раскачал аккаунт, а тут появляется ресурс в 100 раз круче но тоже с системой прокачки и снова качать аккаунт...
    Предлагаем вам перенести Ваши заслуги на другом подобном ресурсе к нам.
    Подробности описаны тут -> ссылка
  • Вы можете получать по 2.5% с каждой покупки и продажи на маркете! Подробности в теме Партнёрская программа
Если Вы не хотите скачивать, Вы всегда можетепосмотретьонлайн, просто нажмите кнопку ниже :

Открыть плеер

Torrent_Bot

Торрент-Бот
Бот форума
4 Окт 2016
79
194
20



Информация о фильме
Название:Гримм
Оригинальное название: Grimm
Год выхода: 2012-2013
Жанр:ужасы, фэнтези, драма, детектив
Режиссер: Норберто Барба, Терренс О’Хара, Эрик Ланёвилль
В ролях: Дэвид Джинтоли, Битси Таллок, Сайлас Уэйр Митчелл, Расселл Хорнсби, Саша Ройз, Регги Ли, Клэр Коффи, Бри Тёрнер, Роберт Бланш, Дэнни Бруно и др.


Действие происходит в современном Портленде, где детектив из отдела убийств узнаёт, что он является потомком группы охотников, известных как «Гриммы», которые сражаются, чтобы сохранить человечество в безопасности от сверхъестественных существ. Узнав о своей судьбе, и том, что он является последним из своего рода, он должен защитить каждую живую душу от зловещих персонажей сборника сказок, которые проникли в реальный мир.



Страна: США
Студия: GK Productions, Hazy Mills Productions, Universal TV
Продолжительность: ~00:44:00 серия
Перевод: Профессиональный (многоголосый, закадровый) LostFilm

Файл
Кодек: H.264
Качество: BDRip 720p
Видео: 1280x720 (16:9), 2461-4182 kbps, 23.976 fps
Звук: Русский (AC-3, 6ch, 448 kbps)
Субтитры: нет



Список серий
01-Bad Teeth / Сквернозуб
02-The Kiss / Поцелуй
03-Bad Moon Rising / Восход плохой луны
04-Quill / Игла
05-The Good Shepherd / Добрый пастырь
06-Over My Dead Body / Над моим бездыханным телом
07-The Bottle Imp / Бес из бутылки
08-The Other Side / Другая сторона
09-La Llorona / Ла Йорона
10-The Hour of Death / Час смерти
11-To Protect and Serve Man / Служить и защищать человека
12-Season of the Hexenbiest / Сезон ведьмы
13-Face Off / Лобовое столкновение
14-Natural Born Wesen / Прирождённое существо
15-Mr. Sandman / Песочный человек
16-Nameless / Безымянный
17-One Angry Fuchsbau / Один разгневанный рыжехвост
18-Volcanalis / Вулканалис
19-Endangered / Под угрозой исчезновения
20-Kiss of the Muse / Поцелуй музы
21-The Waking Dead / Ходячие мертвецы
22-Goodnight, Sweet Grimm / Спокойной ночи, милый Гримм
MI
x264 [info]: frame I:512 Avg QP:16.96 size:109225
x264 [info]: frame P:14670 Avg QP:18.87 size: 36512
x264 [info]: frame B:47107 Avg QP:21.18 size: 8531
x264 [info]: consecutive B-frames: 3.2% 4.2% 8.9% 21.3% 18.9% 37.9% 2.8% 1.2% 0.3% 0.7% 0.8%

General
Unique ID : 202677251326789446769777803241207760234 (0x987A37FF3091A2B84DB44F005C7A056A)
Complete name : H:ГРИММСЕЗОН 221 - Ходячие мертвецы.mkv
Format : Matroska
Format version : Version 4
File size : 1.10 GiB
Duration : 43 min 6 s
Overall bit rate : 3 662 kb/s
Movie name : Grimm S02x21 - The Waking Dead / Гримм S02x21 - Ходячие мертвецы - #LORDKILL#
Encoded date : UTC 2020-12-25 13:50:09
Writing application : mkvmerge v32.0.0 ('Astral Progressions') 64-bit
Writing library : libebml v1.3.7 + libmatroska v1.5.0

Video
ID : 1
Format : AVC
Format/Info : Advanced Video Codec
Format profile : [email protected]
Format settings : CABAC / 9 Ref Frames
Format settings, CABAC : Yes
Format settings, Reference : 9 frames
Codec ID : V_MPEG4/ISO/AVC
Duration : 43 min 6 s
Bit rate : 3 212 kb/s
Width : 1 280 pixels
Height : 720 pixels
Display aspect ratio : 16:9
Frame rate mode : Constant
Frame rate : 23.976 (24000/1001) FPS
Color space : YUV
Chroma subsampling : 4:2:0
Bit depth : 8 bits
Scan type : Progressive
Bits/(Pixel*Frame) : 0.145
Stream size : 990 MiB (88%)
Writing library : x264 core 159 r2991 1771b55
Encoding settings : cabac=1 / ref=9 / deblock=1:-2:-2 / analyse=0x3:0x113 / me=umh / subme=10 / psy=1 / psy_rd=1.00:0.20 / mixed_ref=1 / me_range=32 / chroma_me=1 / trellis=2 / 8x8dct=1 / cqm=0 / deadzone=21,11 / fast_pskip=0 / chroma_qp_offset=-3 / threads=12 / lookahead_threads=3 / sliced_threads=0 / nr=0 / decimate=1 / interlaced=0 / bluray_compat=0 / constrained_intra=0 / bframes=10 / b_pyramid=2 / b_adapt=2 / b_bias=0 / direct=1 / weightb=1 / open_gop=0 / weightp=2 / keyint=240 / keyint_min=23 / scenecut=40 / intra_refresh=0 / rc=crf / mbtree=0 / crf=20.0 / qcomp=0.60 / qpmin=0 / qpmax=69 / qpstep=4 / ip_ratio=1.40 / pb_ratio=1.30 / aq=1:1.00
Default : Yes
Forced : No

Audio
ID : 2
Format : AC-3
Format/Info : Audio Coding 3
Commercial name : Dolby Digital
Codec ID : A_AC3
Duration : 43 min 6 s
Bit rate mode : Constant
Bit rate : 448 kb/s
Channel(s) : 6 channels
Channel layout : L R C LFE Ls Rs
Sampling rate : 48.0 kHz
Frame rate : 31.250 FPS (1536 SPF)
Compression mode : Lossy
Stream size : 138 MiB (12%)
Title : MVO (LostFilm)
Language : Russian
Service kind : Complete Main
Default : Yes
Forced : No

Menu
00:00:00.000 : en:00:00:00.000
00:06:27.262 : en:00:06:27.262
00:19:48.813 : en:00:19:48.813
00:33:18.872 : en:00:33:18.872
Скриншоты

 

Вложения

  • 119,6 KB Просмотры: 1
    Личеров 0
    Сидеров 0
    Файлов 22
    Объем 23,3 GB

Привет!

Мы группа людей которые решили помочь другим в решении их проблем, а так же пользователям с поиском самых свежих и качественных инфопродуктов. За 4 с небольшим месяца мы создали этот форум на который заходят ежедневно тысячи человек и посещаемость постоянно растёт. Мы создали панель лицензирования для защиты PHP скриптов от воровства и SEO панель для мониторинга наших сайтов и выбора верной стратегии их развития. Мы надеемся что то что мы создали пригодится Вам и возможно Вы поможете нам развиваться и совершенствоваться вместе с Вами.

Статистика форума

Темы
414.370
Сообщения
475.396
Пользователи
96.561
Новый пользователь
starushka

Приложения форума для iOS и Android


У ркн там нет власти ;)
Приватные разговоры
Помощь Пользователи
    Вы не присоединились ни к одной комнате.