За последнюю неделю опубликовано 48 новых материалов.
Инструкция новичку Путеводитель по форуму Прокси для Telegram Показать подсказки , это бомба!

Скачать Гримм / Grimm [S01] (2011) BDRip 720p от SuperMin | LostFilm бесплатно через торрент

  • Поучаствуй (в качестве покупателя) в любых пяти совместных покупках (кроме завершённых и "Моментальных") и получи группу "Новичок" навсегда -> ссылка на раздел
  • Получай до 480 рублей за каждого приглашенного пользователя!
    представляем Вам очередное расширение партнерской программы, подробности описаны тут -> ссылка
  • 90% материалов доступно к скачиванию после простой регистрации!
    Если же ты хочешь скачивать материалы без требования оставлять отзывы то получи группу "Новичок", 10 способов повышения описаны тут -> ссылка
  • К сожалению количество битых ссылок растет и мы уже не можем их оперативно восстанавливать поэтому просим помощи у каждого нашего пользователя.
    С сегодняшнего дня, за каждую восстановленную ссылку мы заплатим Вам.
    Подробнее тут -> ссылка
  • Перенесем твои заслуги с другого ресурса!
    Мы понимаем как сложно прокачивать аккаунты на форумах, вроде раскачал аккаунт, а тут появляется ресурс в 100 раз круче но тоже с системой прокачки и снова качать аккаунт...
    Предлагаем вам перенести Ваши заслуги на другом подобном ресурсе к нам.
    Подробности описаны тут -> ссылка
  • Вы можете получать по 2.5% с каждой покупки и продажи на маркете! Подробности в теме Партнёрская программа
Если Вы не хотите скачивать, Вы всегда можетепосмотретьонлайн, просто нажмите кнопку ниже :

Открыть плеер

Torrent_Bot

Торрент-Бот
Бот форума
4 Окт 2016
79
194
20



Информация о фильме
Название:Гримм
Оригинальное название: Grimm
Год выхода: 2011-2012
Жанр:ужасы, фэнтези, драма, детектив
Режиссер: Норберто Барба, Терренс О’Хара, Эрик Ланёвилль
В ролях: Дэвид Джинтоли, Битси Таллок, Сайлас Уэйр Митчелл, Расселл Хорнсби, Саша Ройз, Регги Ли, Клэр Коффи, Бри Тёрнер, Роберт Бланш, Дэнни Бруно и др.


Действие происходит в современном Портленде, где детектив из отдела убийств узнаёт, что он является потомком группы охотников, известных как «Гриммы», которые сражаются, чтобы сохранить человечество в безопасности от сверхъестественных существ. Узнав о своей судьбе, и том, что он является последним из своего рода, он должен защитить каждую живую душу от зловещих персонажей сборника сказок, которые проникли в реальный мир.



Страна: США
Студия: GK Productions, Hazy Mills Productions, Universal TV
Продолжительность: 22х~00:44:00
Перевод: Профессиональный (многоголосый, закадровый) LostFilm

Файл
Кодек: H.264
Качество: BDRip 720p
Видео: 1280x720 (16:9), 2811-5678 kbps, 23.976 fps
Звук: Русский (AC-3, 6ch, 448 kbps)
Субтитры: нет



Список серий
01 - Пилот / Pilot
02 - Медвежья натура / Bears Will Be Bears
03 - Осторожно, пчёлы! / Beeware
04 - Одинокие сердца / Lonelyhearts
05 - Пляска смерти / Danse Macabre
06 - Три злых волка / The Three Bad Wolves
07 - Брось мне косу свою / Let Your Hair Down
08 - Конец огры / Game Ogre
09 - О мыши и человеке / Of Mouse and Man
10 - Мясорубка / Organ Grinder
11 - Тарантелла / Tarantella
12 - Последний настоящий Гримм / Last Grimm Standing
13 - Три монетки в рыжехвосте / Three Coins in a Fuchsbau
14 - Пернатый змей / Plumed Serpent
15 - Остров грёз / Island of Dreams
16 - Чудо в перьях / The Thing with Feathers
17 - Любовная горячка / Love Sick
18 - Кошки-мышки / Cat and Mouse
19 - Предоставьте это бобрам / Leave It to Beavers
20 - Счастливые последствия / Happily Ever Aftermath
21 - Бигфут / Big Feet
22 - Женщина в чёрном / Woman in Black
MI
x264 [info]: frame I:572 Avg QP:17.22 size:146884
x264 [info]: frame P:13503 Avg QP:18.52 size: 50186
x264 [info]: frame B:48263 Avg QP:21.22 size: 15019
x264 [info]: consecutive B-frames: 2.1% 2.4% 9.2% 13.4% 25.2% 44.2% 2.3% 0.9% 0.1% 0.1% 0.1%

General
Unique ID : 101835858052468489856620401912064579393 (0x4C9CDF72ACF80FB47A0BB8C06C951741)
Complete name : H:ГРИММСЕЗОН 15 - Пляска смерти.mkv
Format : Matroska
Format version : Version 4
File size : 1.11 GiB
Duration : 43 min 18 s
Overall bit rate : 3 672 kb/s
Movie name : Grimm S01x05 - Danse Macabre / Гримм S01x05 - Пляска смерти - #LORDKILL#
Encoded date : UTC 2020-12-18 02:18:57
Writing application : mkvmerge v32.0.0 ('Astral Progressions') 64-bit
Writing library : libebml v1.3.7 + libmatroska v1.5.0

Video
ID : 1
Format : AVC
Format/Info : Advanced Video Codec
Format profile : [email protected]
Format settings : CABAC / 9 Ref Frames
Format settings, CABAC : Yes
Format settings, Reference : 9 frames
Codec ID : V_MPEG4/ISO/AVC
Duration : 43 min 18 s
Bit rate : 3 222 kb/s
Width : 1 280 pixels
Height : 720 pixels
Display aspect ratio : 16:9
Frame rate mode : Constant
Frame rate : 23.976 (24000/1001) FPS
Color space : YUV
Chroma subsampling : 4:2:0
Bit depth : 8 bits
Scan type : Progressive
Bits/(Pixel*Frame) : 0.146
Stream size : 998 MiB (88%)
Writing library : x264 core 159 r2991 1771b55
Encoding settings : cabac=1 / ref=9 / deblock=1:-2:-2 / analyse=0x3:0x113 / me=umh / subme=10 / psy=1 / psy_rd=1.00:0.20 / mixed_ref=1 / me_range=32 / chroma_me=1 / trellis=2 / 8x8dct=1 / cqm=0 / deadzone=21,11 / fast_pskip=0 / chroma_qp_offset=-3 / threads=12 / lookahead_threads=3 / sliced_threads=0 / nr=0 / decimate=1 / interlaced=0 / bluray_compat=0 / constrained_intra=0 / bframes=10 / b_pyramid=2 / b_adapt=2 / b_bias=0 / direct=1 / weightb=1 / open_gop=0 / weightp=2 / keyint=240 / keyint_min=23 / scenecut=40 / intra_refresh=0 / rc=crf / mbtree=0 / crf=20.0 / qcomp=0.60 / qpmin=0 / qpmax=69 / qpstep=4 / ip_ratio=1.40 / pb_ratio=1.30 / aq=1:1.00
Default : Yes
Forced : No

Audio
ID : 2
Format : AC-3
Format/Info : Audio Coding 3
Commercial name : Dolby Digital
Codec ID : A_AC3
Duration : 43 min 18 s
Bit rate mode : Constant
Bit rate : 448 kb/s
Channel(s) : 6 channels
Channel layout : L R C LFE Ls Rs
Sampling rate : 48.0 kHz
Frame rate : 31.250 FPS (1536 SPF)
Compression mode : Lossy
Stream size : 139 MiB (12%)
Title : MVO (LostFilm)
Language : Russian
Service kind : Complete Main
Default : Yes
Forced : No
Скриншоты


 

Вложения

  • 138 KB Просмотры: 1
    Личеров 0
    Сидеров 0
    Файлов 22
    Объем 27 GB

Привет!

Мы группа людей которые решили помочь другим в решении их проблем, а так же пользователям с поиском самых свежих и качественных инфопродуктов. За 4 с небольшим месяца мы создали этот форум на который заходят ежедневно тысячи человек и посещаемость постоянно растёт. Мы создали панель лицензирования для защиты PHP скриптов от воровства и SEO панель для мониторинга наших сайтов и выбора верной стратегии их развития. Мы надеемся что то что мы создали пригодится Вам и возможно Вы поможете нам развиваться и совершенствоваться вместе с Вами.

Статистика форума

Темы
414.370
Сообщения
475.396
Пользователи
96.561
Новый пользователь
starushka

Приложения форума для iOS и Android


У ркн там нет власти ;)
Приватные разговоры
Помощь Пользователи
    Вы не присоединились ни к одной комнате.