За последнюю неделю опубликовано 33 новых материалов.
Инструкция новичку Путеводитель по форуму Прокси для Telegram Показать подсказки , это бомба!

Скачать Грань / За гранью / Fringe [S01-05] (2008-2013) BDRip-HEVC 1080p от ХиМиК | ТВ3 бесплатно через торрент

  • Поучаствуй (в качестве покупателя) в любых пяти совместных покупках (кроме завершённых и "Моментальных") и получи группу "Новичок" навсегда -> ссылка на раздел
  • Получай до 480 рублей за каждого приглашенного пользователя!
    представляем Вам очередное расширение партнерской программы, подробности описаны тут -> ссылка
  • 90% материалов доступно к скачиванию после простой регистрации!
    Если же ты хочешь скачивать материалы без требования оставлять отзывы то получи группу "Новичок", 10 способов повышения описаны тут -> ссылка
  • К сожалению количество битых ссылок растет и мы уже не можем их оперативно восстанавливать поэтому просим помощи у каждого нашего пользователя.
    С сегодняшнего дня, за каждую восстановленную ссылку мы заплатим Вам.
    Подробнее тут -> ссылка
  • Перенесем твои заслуги с другого ресурса!
    Мы понимаем как сложно прокачивать аккаунты на форумах, вроде раскачал аккаунт, а тут появляется ресурс в 100 раз круче но тоже с системой прокачки и снова качать аккаунт...
    Предлагаем вам перенести Ваши заслуги на другом подобном ресурсе к нам.
    Подробности описаны тут -> ссылка
  • Вы можете получать по 2.5% с каждой покупки и продажи на маркете! Подробности в теме Партнёрская программа
Если Вы не хотите скачивать, Вы всегда можетепосмотретьонлайн, просто нажмите кнопку ниже :

Открыть плеер

Torrent_Bot

Торрент-Бот
Бот форума
4 Окт 2016
79
194
20
Информация о фильме
Название: Грань / За гранью
Оригинальное название: Fringe
Год выхода: 2008-2013
Жанр: Драма, Ужасы, Детектив, Фантастика, Триллер
Режиссер: Джей Джей Абрамс
В ролях: Анна Торв, Джошуа Джексон, Джон Ноубл, Джесика Николь, Лэнс Реддик, Блэр Браун, Майкл Серверис, Кирк Асеведо, Сет Гейбл, Леонард Нимой

О фильме:
Оливия Данэм — молодой агент ФБР — вынуждена работать со штатом ученых, чтобы расследовать паранормальные явления.
9014dedbdc7c02b5965aa984da1e17c2.gif


Страна: США, Канада
Студия: 20th Century Fox Television
Продолжительность: ~ 43 мин серия
Перевод: Дубляж (ТВ3)

Файл
Кодек: HEVC x265
Качество: BDRip-HEVC 1080p
Видео: 1920x1080 (16:9), 2200-3600 Кбит/сек, 23,976 кадр/сек (24000/1001), HEVC ([email protected]@High) 8bit
Звук:
Русская, AAC 320 Кбит/сек, 48,0 КГц, 6 каналов, Front: L C R, Side: L R, LFE (1 сезон)
Русская, AAC 192 Кбит/сек, 48,0 КГц, 2 каналов, Front: L R (2-5 сезон)
Субтитры: нет
MediaInfo
Общее
Уникальный идентификатор : 178096425990336178216758603427224024112 (0x85FC1FBD2C7F3D04994EAF2704B4F430)
Полное имя : I:HEVC 2FRINGEFringe Se4Fringe Se4E06 And Those We've Left Behind.mkv
Формат : Matroska
Версия формата : Version 4 / Version 2
Размер файла : 1002 Мбайт
Продолжительность : 43 м. 58 с.
Общий поток : 3187 Кбит/сек
Дата кодирования : UTC 2017-06-27 09:10:09
Программа кодирования : mkvmerge v9.7.1 ('Pandemonium') 64bit
Библиотека кодирования : libebml v1.3.4 + libmatroska v1.4.5
Обложка : Yes
Attachments : cover.png

Видео
Идентификатор : 1
Формат : HEVC
Формат/Информация : High Efficiency Video Coding
Профиль формата : [email protected]@High
Идентификатор кодека : V_MPEGH/ISO/HEVC
Продолжительность : 43 м. 58 с.
Битрейт : 2991 Кбит/сек
Ширина : 1920 пикселей
Высота : 1080 пикселей
Соотношение сторон : 16:9
Режим частоты кадров : Постоянный
Частота кадров : 23,976 (24000/1001) кадра/сек
Цветовое пространство : YUV
Субдискретизация насыщенности : 4:2:0
Битовая глубина : 8 бит
Бит/(Пиксели*Кадры) : 0.060
Размер потока : 941 Мбайт (94%)
Библиотека кодирования : x265 2.4+6-fd01abfc7898:[Windows][GCC 6.3.0][64 bit] 8bit+10bit+12bit
Настройки программы : cpuid=1173503 / frame-threads=3 / numa-pools=8 / wpp / no-pmode / no-pme / no-psnr / no-ssim / log-level=2 / input-csp=1 / input-res=1920x1080 / interlace=0 / total-frames=0 / level-idc=41 / high-tier=1 / uhd-bd=0 / ref=3 / no-allow-non-conformance / no-repeat-headers / annexb / no-aud / no-hrd / info / hash=0 / no-temporal-layers / open-gop / min-keyint=23 / keyint=250 / bframes=4 / b-adapt=0 / b-pyramid / bframe-bias=0 / rc-lookahead=15 / lookahead-slices=6 / scenecut=40 / no-intra-refresh / ctu=64 / min-cu-size=8 / no-rect / no-amp / max-tu-size=32 / tu-inter-depth=1 / tu-intra-depth=1 / limit-tu=0 / rdoq-level=0 / dynamic-rd=0.00 / no-ssim-rd / signhide / no-tskip / nr-intra=0 / nr-inter=0 / no-constrained-intra / strong-intra-smoothing / max-merge=2 / limit-refs=3 / no-limit-modes / me=1 / subme=2 / merange=57 / temporal-mvp / weightp / no-weightb / no-analyze-src-pics / deblock=0:0 / sao / no-sao-non-deblock / rd=2 / no-early-skip / rskip / fast-intra / no-tskip-fast / no-cu-lossless / no-b-intra / rdpenalty=0 / psy-rd=2.00 / psy-rdoq=0.00 / no-rd-refine / analysis-mode=0 / no-lossless / cbqpoffs=0 / crqpoffs=0 / rc=crf / crf=21.0 / qcomp=0.60 / qpstep=4 / stats-write=0 / stats-read=0 / vbv-maxrate=50000 / vbv-bufsize=50000 / vbv-init=0.9 / crf-max=0.0 / crf-min=0.0 / ipratio=1.40 / pbratio=1.30 / aq-mode=1 / aq-strength=1.00 / cutree / zone-count=0 / no-strict-cbr / qg-size=32 / no-rc-grain / qpmax=69 / qpmin=0 / sar=1 / overscan=0 / videoformat=5 / range=0 / colorprim=2 / transfer=2 / colormatrix=1 / chromaloc=0 / display-window=0 / max-cll=0,0 / min-luma=0 / max-luma=255 / log2-max-poc-lsb=8 / vui-timing-info / vui-hrd-info / slices=1 / opt-qp-pps / opt-ref-list-length-pps / no-multi-pass-opt-rps / scenecut-bias=0.05 / no-opt-cu-delta-qp / no-aq-motion / no-hdr / no-hdr-opt / no-dhdr10-opt / refine-level=5 / no-limit-sao
Default : Да
Forced : Да
Цветовой диапазон : Limited
Коэффициенты матрицы : BT.709

Аудио
Идентификатор : 2
Формат : AAC
Формат/Информация : Advanced Audio Codec
Профиль формата : LC
Идентификатор кодека : A_AAC
Продолжительность : 43 м. 58 с.
Битрейт : 192 Кбит/сек
Каналы : 2 канала
Расположение каналов : Front: L R
Частота : 48,0 КГц
Частота кадров : 46,875 кадров/сек (1024 spf)
Метод сжатия : С потерями
Задержка видео : 9 мс.
Размер потока : 60,4 Мбайт (6%)
Заголовок : ТВ3
Язык : Russian
Default : Да
Forced : Нет
Скриншоты
a17ddc8c145d42a03145c144a80a2a72.png7c29cf99150e88fc2b08fdb2ec26ad6d.pngf29e7fad1a6f55ed65cca0b576d3c0c2.png5e0da940d4c7ae15338f1cae1c98d418.pnga86f9fdc4b290afc279b2fc7d9686a11.png789f317a329d63c2d4a00b62722ac2db.pngce2e9fd6e60094f4bcfc2caf29c8b85c.png8513cfeb245aede6334cb238019677ed.pngd52c0b68dc12b30f5bdb9acad5893445.pngb870bcb33c120c8ce0292edf43f490ea.png461aa810d10cfb626262655f5d85d6e7.png21a13267e04193b99051297a2ea63cb2.png5c61a8368a7a02f8fee2dd7711024c56.png89c74525723e451d292394a100c8645c.png2fb18705249102a57546185f16d53f19.png8dcc240402f7282fbff32b8abedae5ce.png106214a95330dc414fda186691fafb69.png151f8275f322e3253e276df6172127ff.png13263982758e52e5bb92f62e86c78863.png43b0025df026a9326ea6d65c402db189.png

Релиз от: ХиМиК
 

Вложения

  • 114,2 KB Просмотры: 0
    Личеров 0
    Сидеров 0
    Файлов 101
    Объем 84,5 GB

Привет!

Мы группа людей которые решили помочь другим в решении их проблем, а так же пользователям с поиском самых свежих и качественных инфопродуктов. За 4 с небольшим месяца мы создали этот форум на который заходят ежедневно тысячи человек и посещаемость постоянно растёт. Мы создали панель лицензирования для защиты PHP скриптов от воровства и SEO панель для мониторинга наших сайтов и выбора верной стратегии их развития. Мы надеемся что то что мы создали пригодится Вам и возможно Вы поможете нам развиваться и совершенствоваться вместе с Вами.

Статистика форума

Темы
414.370
Сообщения
475.396
Пользователи
96.561
Новый пользователь
starushka

Приложения форума для iOS и Android


У ркн там нет власти ;)
Приватные разговоры
Помощь Пользователи
    Вы не присоединились ни к одной комнате.