За последнюю неделю опубликовано 122 новых материалов.
Инструкция новичку Путеводитель по форуму Прокси для Telegram Показать подсказки , это бомба!

Скачать Гостья из будущего (1984) DVDRip от New-Team бесплатно через торрент

  • Поучаствуй (в качестве покупателя) в любых пяти совместных покупках (кроме завершённых и "Моментальных") и получи группу "Новичок" навсегда -> ссылка на раздел
  • Получай до 480 рублей за каждого приглашенного пользователя!
    представляем Вам очередное расширение партнерской программы, подробности описаны тут -> ссылка
  • 90% материалов доступно к скачиванию после простой регистрации!
    Если же ты хочешь скачивать материалы без требования оставлять отзывы то получи группу "Новичок", 10 способов повышения описаны тут -> ссылка
  • К сожалению количество битых ссылок растет и мы уже не можем их оперативно восстанавливать поэтому просим помощи у каждого нашего пользователя.
    С сегодняшнего дня, за каждую восстановленную ссылку мы заплатим Вам.
    Подробнее тут -> ссылка
  • Перенесем твои заслуги с другого ресурса!
    Мы понимаем как сложно прокачивать аккаунты на форумах, вроде раскачал аккаунт, а тут появляется ресурс в 100 раз круче но тоже с системой прокачки и снова качать аккаунт...
    Предлагаем вам перенести Ваши заслуги на другом подобном ресурсе к нам.
    Подробности описаны тут -> ссылка
  • Вы можете получать по 2.5% с каждой покупки и продажи на маркете! Подробности в теме Партнёрская программа
Если Вы не хотите скачивать, Вы всегда можетепосмотретьонлайн, просто нажмите кнопку ниже :

Открыть плеер

Torrent_Bot

Торрент-Бот
Бот форума
4 Окт 2016
82
186
20


Страна: СССР / Студия Горького, Гостелерадио

Жанр: фантастика, триллер, драма, мелодрама, приключения, семейный
Год выпуска: 1984
Продолжительность: 01:03:30 / серия

Перевод: Не требуется
Cубтитры: русские от RUSCICO, русские от Твиттера, английские
Оригинальная аудиодорожка: русский

Режиссер: Павел Арсенов

В ролях: Наталья Гусева, Алексей Фомкин, Илья Наумов, Вячеслав Невинный, Михаил Кононов, Марьяна (Марианна) Ионесян, Елена Метелкина, Евгений Герасимов, Владимир Носик, Юрий Григорьев, Игорь Ясулович, Георгий Бурков, Валентина Талызина, Мария Стерникова, Людмила Аринина, Татьяна Божок, Екатерина Васильева, Антон Суховерко, Семён Бузган, Алексей Муравьёв, Екатерина Авербах, Елена Коляскина, Мария Баукина, Наталья Шанаева, Вячеслав Баранов, Наталья Варлей, Андрей Градов, Елена Цыплакова, Борис Щербаков, Рубен Симонов

Роли дублировали: Татьяна Дасковская, Михаил Кокшенов

Описание: 13 апреля 1984 года, в пятницу, ученик 6-го «Б» класса 20-й московской школы Коля Герасимов, отправившись после уроков в магазин за кефиром, встречает на оживлённой улице друга и одноклассника Фиму Королёва, который, в свою очередь, увлекает его слежкой за таинственной незнакомкой. Выслеживая её, ребята забираются в старый заброшенный двухэтажный дом, но незнакомки там не оказывается. В подвале, в потайной комнате, вход в которую замаскирован под обычный шкаф и закрыт подвижной кирпичной стеной, Коля обнаруживает машину времени. Борьба с космическими пиратами, захватывающее путешествие во времени, знакомство с роботом Вертером, говорящим козлом и девочкой из будущего Алисой Селезневой - вот к чему привел Колю обычный поход за кефиром. Фильм поставлен по мотивам фантастического романа Кира Булычева «Сто лет тому вперед».




Качество: DVDRip / 2 х DVD9 R5 - полная реставрация изображения и звука от RUSCICO.

Формат: AVI

Видео: 720x544 (4:3), 25.000 fps, XviD ~ 1800 kbps avg, 0.184 bit/pixel
Аудио: 48 kHz, Dolby AC3, 6 ch, 448 kbps
Формат субтитров: SoftSub (srt)

О релизе: Я бы скорее всего не взялся за эту работу, если бы на дисках не было русских субтитров, я даже включил в раздачу двое русских субтитров, от RUSCICO и от Твиттера . Наши издатели фильмов практически никогда не думают о глухих людях, поэтому те и смотрят в основном не наши фильмы. В данном случае большой респект издателю!!!

Раздача от:

MediaInfo
General
Format : AVI
Format/Info : Audio Video Interleave
File size : 1 022 MiB
Duration : 1h 3mn
Overall bit rate : 2 256 Kbps
Writing application : VirtualDubMod 1.5.10.3 | www.virtualdub-fr.org || (build 2550/release)
Writing library : VirtualDubMod build 2550/release

Video
ID : 0
Format : MPEG-4 Visual
Format profile : Advanced [email protected]
Format settings, BVOP : 1
Format settings, QPel : No
Format settings, GMC : No warppoints
Format settings, Matrix : Custom
Codec ID : XVID
Codec ID/Hint : XviD
Duration : 1h 3mn
Bit rate : 1 798 Kbps
Width : 720 pixels
Height : 544 pixels
Display aspect ratio : 4:3
Frame rate : 25.000 fps
Color space : YUV
Chroma subsampling : 4:2:0
Bit depth : 8 bits
Scan type : Progressive
Compression mode : Lossy
Bits/(Pixel*Frame) : 0.184
Stream size : 815 MiB (80%)
Writing library : XviD 73

Audio
ID : 1
Format : AC-3
Format/Info : Audio Coding 3
Mode extension : CM (complete main)
Format settings, Endianness : Big
Codec ID : 2000
Duration : 1h 3mn
Bit rate mode : Constant
Bit rate : 448 Kbps
Channel(s) : 6 channels
Channel positions : Front: L C R, Side: L R, LFE
Sampling rate : 48.0 KHz
Bit depth : 16 bits
Compression mode : Lossy
Stream size : 203 MiB (20%)
Alignment : Split accross interleaves
Interleave, duration : 40 ms (1.00 video frame)
Interleave, preload duration : 500 ms
Скриншоты:
Сравнение
http://rutor.org/torrent/86561/gostja-iz-buduwego-1984-dvdrip

Видео: Not found : Screenshot Comparison это сравнение первых серий релизов. Особенного отличия нет, просто картинка у меня помягче и кое-где почётче. Но в том релизе нет никаких субтитров!
 

Вложения

  • 14,5 KB Просмотры: 1
    Личеров 0
    Сидеров 0
    Файлов 20
    Объем 5 GB

Привет!

Мы группа людей которые решили помочь другим в решении их проблем, а так же пользователям с поиском самых свежих и качественных инфопродуктов. За 4 с небольшим месяца мы создали этот форум на который заходят ежедневно тысячи человек и посещаемость постоянно растёт. Мы создали панель лицензирования для защиты PHP скриптов от воровства и SEO панель для мониторинга наших сайтов и выбора верной стратегии их развития. Мы надеемся что то что мы создали пригодится Вам и возможно Вы поможете нам развиваться и совершенствоваться вместе с Вами.

Статистика форума

Темы
412.278
Сообщения
471.359
Пользователи
91.813
Новый пользователь
Димыч

Приложения форума для iOS и Android


У ркн там нет власти ;)
Приватные разговоры
Помощь Пользователи
    Вы не присоединились ни к одной комнате.