За последнюю неделю опубликовано 160 новых материалов.
Инструкция новичку Путеводитель по форуму Прокси для Telegram Показать подсказки , это бомба!

Скачать Гости (2019) BDRip-AVC от New-Team бесплатно через торрент

  • Поучаствуй (в качестве покупателя) в любых пяти совместных покупках (кроме завершённых и "Моментальных") и получи группу "Новичок" навсегда -> ссылка на раздел
  • Получай до 480 рублей за каждого приглашенного пользователя!
    представляем Вам очередное расширение партнерской программы, подробности описаны тут -> ссылка
  • 90% материалов доступно к скачиванию после простой регистрации!
    Если же ты хочешь скачивать материалы без требования оставлять отзывы то получи группу "Новичок", 10 способов повышения описаны тут -> ссылка
  • К сожалению количество битых ссылок растет и мы уже не можем их оперативно восстанавливать поэтому просим помощи у каждого нашего пользователя.
    С сегодняшнего дня, за каждую восстановленную ссылку мы заплатим Вам.
    Подробнее тут -> ссылка
  • Перенесем твои заслуги с другого ресурса!
    Мы понимаем как сложно прокачивать аккаунты на форумах, вроде раскачал аккаунт, а тут появляется ресурс в 100 раз круче но тоже с системой прокачки и снова качать аккаунт...
    Предлагаем вам перенести Ваши заслуги на другом подобном ресурсе к нам.
    Подробности описаны тут -> ссылка
  • Вы можете получать по 2.5% с каждой покупки и продажи на маркете! Подробности в теме Партнёрская программа
Если Вы не хотите скачивать, Вы всегда можетепосмотретьонлайн, просто нажмите кнопку ниже :

Открыть плеер

Torrent_Bot

Торрент-Бот
Бот форума
4 Окт 2016
124
93
20


Гости

«Не впускай их!»




Страна: Россия
Жанр: триллер, ужасы, мелодрама
Год выпуска: 2019
Продолжительность: 01:27:37

Перевод: Не требуется
Субтитры: нет
Оригинальная аудиодорожка: русский

Режиссер: Евгений Абызов

В ролях: Юрий Чурсин, Ангелина Стречина, Михаил Мещеряков, Анастасия Уколова, Анар Халилов, Евгений Егоров, Марина Панферова, Иван Верховых, Мария Лисовая

Описание: Юная Катя знакомится с веселой компанией приезжих ребят, у которых есть специфическое развлечение - устраивать вечеринки в чужих пустующих домах. И Катя знает подходящее место: старинная дача на побережье, хозяин которой давно уехал. Уединенно расположенный дом, в котором в начале прошлого века был спиритический салон, кажется всем отличным вариантом. Тревожная, даже жуткая заброшенность этого места никого не отпугивает... В разгар вечеринки появляется тот, кого Катя никак не ожидала увидеть: таинственный хозяин дома... Человек, которого она любила. Человек, находящийся во власти потусторонних сил.



Релиз:

Автор рипа: stalkerok

Сэмпл

Качество видео: BDRip-AVC | Исходник: Guests.Das.Tor.zur.Hoelle.2019.GERMAN.DL.1080p.BluRay.AVC-iTSMEMARiO
Формат видео: MKV
Видео кодек: AVC
Аудио кодек: AC3
Видео: AVC, 2004 Кбит/сек, 1152x482 (2.40:1), 23,976 кадр/сек
Аудио: AC3, 384 Кбит/сек, 48 КГц, 5.1 - русский | Blu-Ray GER
Навигация по главам: есть

x264/MediaInfo
---[Information] [04.07.2019 1:08:24] x264 [info]: frame I:892 Avg QP:16.35 size: 55572
---[Information] [04.07.2019 1:08:24] x264 [info]: frame P:24455 Avg QP:18.00 size: 23106
---[Information] [04.07.2019 1:08:24] x264 [info]: frame B:100697 Avg QP:21.04 size: 6977

General
Unique ID : 121054172825462730545253133418110613864 (0x5B122F85B1AA569F343C1F6411677968)
Complete name : C:tempGostiGosti.2019.BDRip.x264.Rus.stalkerok.New-Team.mkv
Format : Matroska
Format version : Version 4 / Version 2
File size : 1.46 GiB
Duration : 1 h 27 min
Overall bit rate : 2 390 kb/s
Movie name : Гости (2019) | Rip by stalkerok
Encoded date : UTC 2019-07-04 11:38:53
Writing application : mkvmerge v33.1.0 ('Primrose') 64-bit
Writing library : libebml v1.3.7 + libmatroska v1.5.0

Video
ID : 1
Format : AVC
Format/Info : Advanced Video Codec
Format profile : High@L4.1
Format settings, CABAC : Yes
Format settings, ReFrames : 12 frames
Codec ID : V_MPEG4/ISO/AVC
Duration : 1 h 27 min
Bit rate : 2 004 kb/s
Width : 1 152 pixels
Height : 482 pixels
Display aspect ratio : 2.40:1
Frame rate mode : Constant
Frame rate : 23.976 FPS
Color space : YUV
Chroma subsampling : 4:2:0
Bit depth : 8 bits
Scan type : Progressive
Bits/(Pixel*Frame) : 0.151
Stream size : 1.23 GiB (84%)
Title : Гости (2019) | Rip by stalkerok
Writing library : x264 core 157 r2945 72db437
Encoding settings : cabac=1 / ref=12 / deblock=1:-3:-2 / analyse=0x3:0x133 / me=umh / subme=10 / psy=1 / psy_rd=1.00:0.00 / mixed_ref=1 / me_range=32 / chroma_me=1 / trellis=2 / 8x8dct=1 / cqm=0 / deadzone=21,11 / fast_pskip=0 / chroma_qp_offset=-2 / threads=12 / lookahead_threads=3 / sliced_threads=0 / nr=0 / decimate=1 / interlaced=0 / bluray_compat=0 / constrained_intra=0 / bframes=14 / b_pyramid=2 / b_adapt=2 / b_bias=0 / direct=3 / weightb=1 / open_gop=0 / weightp=2 / keyint=240 / keyint_min=23 / scenecut=40 / intra_refresh=0 / rc_lookahead=60 / rc=crf / mbtree=0 / crf=19.8 / qcomp=0.65 / qpmin=0 / qpmax=69 / qpstep=4 / vbv_maxrate=50000 / vbv_bufsize=62500 / crf_max=0.0 / nal_hrd=none / filler=0 / ip_ratio=1.40 / pb_ratio=1.30 / aq=3:0.80
Default : Yes
Forced : No

Audio
ID : 2
Format : AC-3
Format/Info : Audio Coding 3
Mode extension : CM (complete main)
Format settings, Endianness : Big
Codec ID : A_AC3
Duration : 1 h 27 min
Bit rate mode : Constant
Bit rate : 384 kb/s
Channel(s) : 6 channels
Channel positions : Front: L C R, Side: L R, LFE
Sampling rate : 48.0 kHz
Frame rate : 31.250 FPS (1536 spf)
Compression mode : Lossy
Stream size : 241 MiB (16%)
Language : Russian
Default : Yes
Forced : No

Menu
00:00:00.000 : de:00:00:00.000
00:07:10.096 : de:00:07:10.096
00:14:39.837 : de:00:14:39.837
00:20:55.463 : de:00:20:55.463
00:26:52.110 : de:00:26:52.110
00:33:16.745 : de:00:33:16.745
00:39:48.094 : de:00:39:48.094
00:44:53.107 : de:00:44:53.107
00:53:08.310 : de:00:53:08.310
01:00:05.519 : de:01:00:05.519
01:08:40.742 : de:01:08:40.742
01:18:41.258 : de:01:18:41.258




 

Вложения

  • 16,3 KB Просмотры: 0
    Личеров 0
    Сидеров 0
    Файлов 1
    Объем 1,5 GB
Ваш e-mail не будет опубликован. Он потребуется для подтверждения Вашего поста.
Оформление текста Нажмите «Ввод», чтобы отправить ответ.

Привет!

Мы группа людей которые решили помочь другим в решении их проблем, а так же пользователям с поиском самых свежих и качественных инфопродуктов. За 4 с небольшим месяца мы создали этот форум на который заходят ежедневно тысячи человек и посещаемость постоянно растёт. Мы создали панель лицензирования для защиты PHP скриптов от воровства и SEO панель для мониторинга наших сайтов и выбора верной стратегии их развития. Мы надеемся что то что мы создали пригодится Вам и возможно Вы поможете нам развиваться и совершенствоваться вместе с Вами.

Статистика форума

Темы
378.666
Сообщения
417.818
Пользователи
49.275
Новый пользователь
Romka1742

Приложения форума для iOS и Android


У ркн там нет власти ;)
Приватные разговоры
Помощь Пользователи
    Вы не присоединились ни к одной комнате.