За последнюю неделю опубликовано 57 новых материалов.
Инструкция новичку Путеводитель по форуму Прокси для Telegram Показать подсказки , это бомба!

Скачать Гость / Гость в доме / Houseguest (1995) WEB-DL 1080p от MediaBit | P, A бесплатно через торрент

  • Поучаствуй (в качестве покупателя) в любых пяти совместных покупках (кроме завершённых и "Моментальных") и получи группу "Новичок" навсегда -> ссылка на раздел
  • Получай до 480 рублей за каждого приглашенного пользователя!
    представляем Вам очередное расширение партнерской программы, подробности описаны тут -> ссылка
  • 90% материалов доступно к скачиванию после простой регистрации!
    Если же ты хочешь скачивать материалы без требования оставлять отзывы то получи группу "Новичок", 10 способов повышения описаны тут -> ссылка
  • К сожалению количество битых ссылок растет и мы уже не можем их оперативно восстанавливать поэтому просим помощи у каждого нашего пользователя.
    С сегодняшнего дня, за каждую восстановленную ссылку мы заплатим Вам.
    Подробнее тут -> ссылка
  • Перенесем твои заслуги с другого ресурса!
    Мы понимаем как сложно прокачивать аккаунты на форумах, вроде раскачал аккаунт, а тут появляется ресурс в 100 раз круче но тоже с системой прокачки и снова качать аккаунт...
    Предлагаем вам перенести Ваши заслуги на другом подобном ресурсе к нам.
    Подробности описаны тут -> ссылка
  • Вы можете получать по 2.5% с каждой покупки и продажи на маркете! Подробности в теме Партнёрская программа
Если Вы не хотите скачивать, Вы всегда можетепосмотретьонлайн, просто нажмите кнопку ниже :

Открыть плеер

Torrent_Bot

Торрент-Бот
Бот форума
4 Окт 2016
92
163
20



Информация о фильме
Название: Гость / Гость в доме
Оригинальное название: Houseguest
Год выхода: 1995
Жанр: Комедия, семейный
Режиссер: Рэндолл Миллер
В ролях: Синбад, Фил Хартмен, Ким Грайст, Чонси Леопарди, Талиа Сайдер, Ким Мерфи, Пол Бен-Виктор, Тони Лонго, Джеффри Джонс, Стэн Шоу, Рон Гласс, Кевин Джордан, Мейсон Эдамс, Кевин Уэст, Джонатан Т. Флойд, Ларри Джон Мейерс, Джоди Савин, Мэрилин Истман, Тина Бенко, Рэндолл Миллер, Бинго О’Мэлли

О фильме: Кевин, "профессиональный" бездельник и неисправимый оптимист, в свои тридцать пять все еще не теряет надежды заработать первый миллион. Взяв у мафии под очередной "гениальный" проект пять тысяч долларов, он, через некоторое время, с немалым удивлением узнает, что полученная им в долг сумма успела вырасти до пятидесяти. Мафиози предлагают Кевину два варианта на выбор: еще один день для возврата денег или немедленная смерть. Кевин, конечно же, выбирает первое, и, долго не мешкая, отправляется прямиком в аэропорт, где сразу же был застукан вездесущей мафией. Убегая от погони, он сталкивается неким Гари Янгом, встречающим своего друга, с которым не виделся 25 лет. Воспользовавшись такой удачей, Кевин становится Дереком Бондом — дорогим гостем в доме Гари...



Страна: США
Студия: Caravan Pictures, Hollywood Pictures
Продолжительность: 01:48:48
Перевод: Профессиональный многоголосый, авторский

Файл
Кодек: MPEG-4 AVC
Качество: WEB-DL 1080p
Видео: 12400 Кбит/с, 1920x1040, 23.976 кадр/с
Звук:
Аудио #1: AC3, 48 Гц, 192 Кбит/сек, 2 ch (L + R) | Русский | MVO | СТС
Аудио #2: AC3, 48 Гц, 192 Кбит/сек, 2 ch (L + R) | Русский | AVO | Гаврилов
Аудио #3: AC3, 48 Гц, 192 Кбит/сек, 2 ch (L + R) | Русский | AVO | Кузнецов
Аудио #4: AC3, 48 Гц, 224 Кбит/сек, 2 ch (L + R) | Английский
Субтитры: Английские

Семпл
MI
Общее
Уникальный идентификатор : 51012330556350462323014884992109154680 (0x26609E14296F81A7E621575EC1129178)
Полное имя : D:ТоррентыHouseguest.1995.1080p.WEB-DLGost.v.dome.1995.x264.WEB-DL(1080p)-MediaBit.mkv
Формат : Matroska
Версия формата : Version 4
Размер файла : 10,0 Гбайт
Продолжительность : 1 ч. 48 м.
Режим общего битрейта : Переменный
Общий поток : 13,2 Мбит/сек
Название фильма : Гость / Гость в доме / Houseguest (1995)
Дата кодирования : UTC 2020-07-25 09:04:26
Программа кодирования : mkvmerge v25.0.0 ('Prog Noir') 64-bit
Библиотека кодирования : libebml v1.3.6 + libmatroska v1.4.9

Видео
Идентификатор : 1
Формат : AVC
Формат/Информация : Advanced Video Codec
Профиль формата : [email protected]
Настройки формата : CABAC / 4 Ref Frames
Параметр CABAC формата : Да
Параметр RefFrames формата : 4 кадра
Идентификатор кодека : V_MPEG4/ISO/AVC
Продолжительность : 1 ч. 48 м.
Вид битрейта : Переменный
Битрейт : 12,4 Мбит/сек
Максимальный битрейт : 15,0 Мбит/сек
Ширина : 1 920 пикселей
Высота : 1 040 пикселей
Соотношение сторон : 1,85:1
Режим частоты кадров : Постоянный
Частота кадров : 23,976 (24000/1001) кадра/сек
Цветовое пространство : YUV
Субдискретизация насыщенности : 4:2:0
Битовая глубина : 8 бит
Тип развёртки : Прогрессивная
Бит/(Пиксели*Кадры) : 0.258
Размер потока : 9,39 Гбайт (94%)
Заголовок : MediaBit
Библиотека кодирования : x264 core 148 r2623 d5b2374
Настройки программы : cabac=1 / ref=4 / deblock=1:-1:-1 / analyse=0x3:0x133 / me=umh / subme=9 / psy=1 / psy_rd=1.00:0.15 / mixed_ref=1 / me_range=24 / chroma_me=1 / trellis=2 / 8x8dct=1 / cqm=0 / deadzone=21,11 / fast_pskip=1 / chroma_qp_offset=-3 / threads=32 / lookahead_threads=5 / sliced_threads=0 / nr=150 / decimate=1 / interlaced=0 / bluray_compat=0 / constrained_intra=0 / bframes=8 / b_pyramid=2 / b_adapt=2 / b_bias=0 / direct=3 / weightb=1 / open_gop=0 / weightp=2 / keyint=120 / keyint_min=61 / scenecut=0 / intra_refresh=0 / rc_lookahead=120 / rc=crf / mbtree=1 / crf=18.0 / qcomp=0.60 / qpmin=0 / qpmax=69 / qpstep=4 / vbv_maxrate=15000 / vbv_bufsize=31250 / crf_max=0.0 / nal_hrd=vbr / filler=0 / ip_ratio=1.40 / aq=3:1.00
Язык : English
Default : Да
Forced : Нет
Цветовой диапазон : Limited
Основные цвета : BT.709
Характеристики трансфера : BT.709
Коэффициенты матрицы : BT.709

Аудио #1
Идентификатор : 2
Формат : AC-3
Формат/Информация : Audio Coding 3
Коммерческое название : Dolby Digital
Идентификатор кодека : A_AC3
Продолжительность : 1 ч. 48 м.
Вид битрейта : Постоянный
Битрейт : 192 Кбит/сек
Каналы : 2 канала
Channel layout : L R
Частота : 48,0 КГц
Частота кадров : 31,250 кадров/сек (1536 SPF)
Метод сжатия : С потерями
Размер потока : 149 Мбайт (1%)
Заголовок : MVO | СТС
Язык : Russian
Service kind : Complete Main
Default : Да
Forced : Нет

Аудио #2
Идентификатор : 3
Формат : AC-3
Формат/Информация : Audio Coding 3
Коммерческое название : Dolby Digital
Идентификатор кодека : A_AC3
Продолжительность : 1 ч. 48 м.
Вид битрейта : Постоянный
Битрейт : 192 Кбит/сек
Каналы : 2 канала
Channel layout : L R
Частота : 48,0 КГц
Частота кадров : 31,250 кадров/сек (1536 SPF)
Метод сжатия : С потерями
Размер потока : 149 Мбайт (1%)
Заголовок : AVO | Гаврилов
Язык : Russian
Service kind : Complete Main
Default : Нет
Forced : Нет

Аудио #3
Идентификатор : 4
Формат : AC-3
Формат/Информация : Audio Coding 3
Коммерческое название : Dolby Digital
Идентификатор кодека : A_AC3
Продолжительность : 1 ч. 48 м.
Вид битрейта : Постоянный
Битрейт : 192 Кбит/сек
Каналы : 2 канала
Channel layout : L R
Частота : 48,0 КГц
Частота кадров : 31,250 кадров/сек (1536 SPF)
Метод сжатия : С потерями
Размер потока : 149 Мбайт (1%)
Заголовок : AVO | Кузнецов
Язык : Russian
Service kind : Complete Main
Default : Нет
Forced : Нет

Аудио #4
Идентификатор : 5
Формат : AC-3
Формат/Информация : Audio Coding 3
Коммерческое название : Dolby Digital
Идентификатор кодека : A_AC3
Продолжительность : 1 ч. 48 м.
Вид битрейта : Постоянный
Битрейт : 224 Кбит/сек
Каналы : 2 канала
Channel layout : L R
Частота : 48,0 КГц
Частота кадров : 31,250 кадров/сек (1536 SPF)
Метод сжатия : С потерями
Размер потока : 174 Мбайт (2%)
Заголовок : Original
Язык : English
Service kind : Complete Main
Default : Нет
Forced : Нет

Текст
Идентификатор : 6
Формат : UTF-8
Идентификатор кодека : S_TEXT/UTF8
Идентификатор кодека/Информация : UTF-8 Plain Text
Продолжительность : 1 ч. 48 м.
Битрейт : 110 бит/сек
Count of elements : 1968
Размер потока : 87,3 Кбайт (0%)
Язык : English
Default : Нет
Forced : Нет
Скриншоты

Релиз от:
 

Вложения

  • 28,3 KB Просмотры: 0
    Личеров 0
    Сидеров 0
    Файлов 1
    Объем 10 GB

Привет!

Мы группа людей которые решили помочь другим в решении их проблем, а так же пользователям с поиском самых свежих и качественных инфопродуктов. За 4 с небольшим месяца мы создали этот форум на который заходят ежедневно тысячи человек и посещаемость постоянно растёт. Мы создали панель лицензирования для защиты PHP скриптов от воровства и SEO панель для мониторинга наших сайтов и выбора верной стратегии их развития. Мы надеемся что то что мы создали пригодится Вам и возможно Вы поможете нам развиваться и совершенствоваться вместе с Вами.

Статистика форума

Темы
406.698
Сообщения
465.161
Пользователи
84.787
Новый пользователь
Freckle

Приложения форума для iOS и Android


У ркн там нет власти ;)
Приватные разговоры
Помощь Пользователи
    Вы не присоединились ни к одной комнате.