За последнюю неделю опубликовано 90 новых материалов.
Инструкция новичку Путеводитель по форуму Прокси для Telegram Показать подсказки , это бомба!

Скачать Госпожа Вампир по соседству / Tonari no Kyuuketsuki-san [S01] (2018) BDRip от Deadmauvlad | P | Kansai бесплатно через торрент

  • Поучаствуй (в качестве покупателя) в любых пяти совместных покупках (кроме завершённых и "Моментальных") и получи группу "Новичок" навсегда -> ссылка на раздел
  • Получай до 480 рублей за каждого приглашенного пользователя!
    представляем Вам очередное расширение партнерской программы, подробности описаны тут -> ссылка
  • 90% материалов доступно к скачиванию после простой регистрации!
    Если же ты хочешь скачивать материалы без требования оставлять отзывы то получи группу "Новичок", 10 способов повышения описаны тут -> ссылка
  • К сожалению количество битых ссылок растет и мы уже не можем их оперативно восстанавливать поэтому просим помощи у каждого нашего пользователя.
    С сегодняшнего дня, за каждую восстановленную ссылку мы заплатим Вам.
    Подробнее тут -> ссылка
  • Перенесем твои заслуги с другого ресурса!
    Мы понимаем как сложно прокачивать аккаунты на форумах, вроде раскачал аккаунт, а тут появляется ресурс в 100 раз круче но тоже с системой прокачки и снова качать аккаунт...
    Предлагаем вам перенести Ваши заслуги на другом подобном ресурсе к нам.
    Подробности описаны тут -> ссылка
  • Вы можете получать по 2.5% с каждой покупки и продажи на маркете! Подробности в теме Партнёрская программа

Torrent_Bot

Торрент-Бот
Бот форума
4 Окт 2016
102
153
20


Информация о фильме
Название: Госпожа Вампир по соседству
Оригинальное название: Tonari no Kyuuketsuki-san
Год выпуска: 2018
Жанр:вампиры, комедия, повседневность, сверхъестественное, сёдзё-ай
Выпуск: с 5 октября 2018 по 21 декабря 2018
Трансляция: пятница в 21:00 [вечерний сеанс] на AT-X
Режиссер: Акитая Нориаки
Автор оригинала: Амато
Снято по манге: Госпожа Вампир по соседству
Возрастное ограничение: 14+
В главных ролях: Рина Хидака, Юми Какадзу, Каору Катакай, Ринн, Ю Сасахара, Мию Томита, Ая Утида, Ёдзи Уэда, Адзуми Ваки


Описание: Любовь нечаянно нагрянет, когда её совсем не ждёшь! Акари Амано с первого взгляда влюбляется в девушку-вампира Софи Твайлайт, которая спасает её из беды. Вскоре это слепое увлечение перетекает в совместное проживание: Софи приходится принять свою новую соседку. А Софи и сама не является типичным представителем расы вампиров — людей она не трогает, ведь ей привычнее заказать кровь и аниме-товары в интернет-магазинах. Так и начинается современная вампирская комедия, которую определённо стоит посмотреть!







Производство: Япония
Студия: Studio Gokumi
Продолжительность: 12 серий x ~00:24:00
Перевод: Профессиональный (многоголосый, закадровый) | KANSAI (01-11 серия)
Перевод (12 серия) : Любительский (Одноголосый, закадровый) Animaunt (VieliS)

Качество: BDRip [**Исходник: BDRemux 1080p thx antiBILLotic]
Контейнер: AVI
Кодек: XviD
Видео: 704x400 (16:9), 23.976 fps, 1 648 kb/s (0.236 bit/pixel)
Аудио №1: AC-3, 48,0 КГц, 2 ch, 192 Кбит/сек, CBR | | Kansai
Аудио №2: AC-3, 48,0 КГц, 2 ch, 192 /сек, CBR | | Japan (Оригинал)
Русские Субтитры: Есть (Crunchyroll) (Полный Перевод)


Список Серий
01. Типичный обитатель тьмы
02. Подруга Акари
03. Вампир идёт в школу
04. Софи и Эри
05. Вампир готовит
06. Интервью с вампиром
07. Летние каникулы, проведённые с вампиром
08. Последний день летних каникул
09. Вампир против охотника на вампиров
10. Вампир и Конец года
11. Простудная пора
12. Вампир и время перемен
MediaInfo
General
Complete name : [Deadmau- RAWS] Tonari.no.Kyuuketsuki-san.2018.S01.Rus.Jap.BDRip.Deadmauvlad.Ep.01.avi
Format : AVI
Format/Info : Audio Video Interleave
File size : 347 MiB
Duration : 23 min 41 s
Overall bit rate : 2 047 kb/s
Movie name : [Deadmau- RAWS] Госпожа.Вампир.по.соседству.2018.S01.Rus.Jap.BDRip.Deadmauvlad.Ep.01
Director : Encoder by Deadmauvlad
Genre : комедия, сёдзё-ай
Writing application : VirtualDubMod 1.5.10.3 | www.virtualdub-fr.org || (build 2550/release)
Original source form/Name : Аниме
Copyright : Encoder by Deadmauvlad
Comment : Encoder by Deadmauvlad

Video
ID : 0
Format : MPEG-4 Visual
Format profile : Advanced Simple@L5
Format settings : BVOP1 / Custom Matrix
Format settings, BVOP : 1
Format settings, QPel : No
Format settings, GMC : No warppoints
Format settings, Matrix : Custom
Codec ID : XVID
Codec ID/Hint : XviD
Duration : 23 min 41 s
Bit rate : 1 648 kb/s
Width : 704 pixels
Height : 400 pixels
Display aspect ratio : 16:9
Frame rate : 23.976 (24000/1001) FPS
Color space : YUV
Chroma subsampling : 4:2:0
Bit depth : 8 bits
Scan type : Progressive
Compression mode : Lossy
Bits/(Pixel*Frame) : 0.244
Stream size : 279 MiB (81%)
Writing library : XviD 73

Audio #1
ID : 1
Format : AC-3
Format/Info : Audio Coding 3
Commercial name : Dolby Digital
Codec ID : 2000
Duration : 23 min 41 s
Bit rate mode : Constant
Bit rate : 192 kb/s
Channel(s) : 2 channels
Channel layout : L R
Sampling rate : 48.0 kHz
Frame rate : 31.250 FPS (1536 SPF)
Bit depth : 16 bits
Compression mode : Lossy
Stream size : 32.5 MiB (9%)
Alignment : Split accross interleaves
Interleave, duration : 42 ms (1.00 video frame)
Interleave, preload duration : 500 ms

Audio #2
ID : 2
Format : AC-3
Format/Info : Audio Coding 3
Commercial name : Dolby Digital
Codec ID : 2000
Duration : 23 min 41 s
Bit rate mode : Constant
Bit rate : 192 kb/s
Channel(s) : 2 channels
Channel layout : L R
Sampling rate : 48.0 kHz
Frame rate : 31.250 FPS (1536 SPF)
Bit depth : 16 bits
Compression mode : Lossy
Stream size : 32.5 MiB (9%)
Alignment : Split accross interleaves
Interleave, duration : 42 ms (1.00 video frame)
Interleave, preload duration : 500 ms

Скриншоты

ЦитатаDeadmauvlad писал:
1. Кансай не озвучили 12-ю серию пришлось сводить одноголоску.Если не нравится одноголоска или даб в целом есть нормальные сабы от кранчролл
2. Сведение и исправление озвучки (У Kansai) by Deadmauvlad


Релиз / Автор рипа: Deadmauvlad

 

Вложения

  • 24,5 KB Просмотры: 0
    Личеров 0
    Сидеров 0
    Файлов 24
    Объем 4,1 GB

Привет!

Мы группа людей которые решили помочь другим в решении их проблем, а так же пользователям с поиском самых свежих и качественных инфопродуктов. За 4 с небольшим месяца мы создали этот форум на который заходят ежедневно тысячи человек и посещаемость постоянно растёт. Мы создали панель лицензирования для защиты PHP скриптов от воровства и SEO панель для мониторинга наших сайтов и выбора верной стратегии их развития. Мы надеемся что то что мы создали пригодится Вам и возможно Вы поможете нам развиваться и совершенствоваться вместе с Вами.

Статистика форума

Темы
405.442
Сообщения
462.403
Пользователи
80.447
Новый пользователь
p1atosha

Приложения форума для iOS и Android


У ркн там нет власти ;)
Приватные разговоры
Помощь Пользователи
    Вы не присоединились ни к одной комнате.