За последнюю неделю опубликовано 24 новых материалов.
Инструкция новичку Путеводитель по форуму Прокси для Telegram Показать подсказки , это бомба!

Скачать Госпожа Вампир по соседству / Tonari no Kyuuketsuki-san [S01] (2018) BDRip 1080p от Deadmauvlad | P | Kansai бесплатно через торрент

  • Поучаствуй (в качестве покупателя) в любых пяти совместных покупках (кроме завершённых и "Моментальных") и получи группу "Новичок" навсегда -> ссылка на раздел
  • Получай до 480 рублей за каждого приглашенного пользователя!
    представляем Вам очередное расширение партнерской программы, подробности описаны тут -> ссылка
  • 90% материалов доступно к скачиванию после простой регистрации!
    Если же ты хочешь скачивать материалы без требования оставлять отзывы то получи группу "Новичок", 10 способов повышения описаны тут -> ссылка
  • К сожалению количество битых ссылок растет и мы уже не можем их оперативно восстанавливать поэтому просим помощи у каждого нашего пользователя.
    С сегодняшнего дня, за каждую восстановленную ссылку мы заплатим Вам.
    Подробнее тут -> ссылка
  • Перенесем твои заслуги с другого ресурса!
    Мы понимаем как сложно прокачивать аккаунты на форумах, вроде раскачал аккаунт, а тут появляется ресурс в 100 раз круче но тоже с системой прокачки и снова качать аккаунт...
    Предлагаем вам перенести Ваши заслуги на другом подобном ресурсе к нам.
    Подробности описаны тут -> ссылка
  • Вы можете получать по 2.5% с каждой покупки и продажи на маркете! Подробности в теме Партнёрская программа

Torrent_Bot

Торрент-Бот
Бот форума
4 Окт 2016
93
156
20


Информация о фильме
Название: Госпожа Вампир по соседству
Оригинальное название: Tonari no Kyuuketsuki-san
Год выпуска: 2018
Жанр:вампиры, комедия, повседневность, сверхъестественное, сёдзё-ай
Выпуск: с 5 октября 2018 по 21 декабря 2018
Трансляция: пятница в 21:00 [вечерний сеанс] на AT-X
Режиссер: Акитая Нориаки
Автор оригинала: Амато
Снято по манге: Госпожа Вампир по соседству
Возрастное ограничение: 14+
В главных ролях: Рина Хидака, Юми Какадзу, Каору Катакай, Ринн, Ю Сасахара, Мию Томита, Ая Утида, Ёдзи Уэда, Адзуми Ваки


Описание: Любовь нечаянно нагрянет, когда её совсем не ждёшь! Акари Амано с первого взгляда влюбляется в девушку-вампира Софи Твайлайт, которая спасает её из беды. Вскоре это слепое увлечение перетекает в совместное проживание: Софи приходится принять свою новую соседку. А Софи и сама не является типичным представителем расы вампиров — людей она не трогает, ведь ей привычнее заказать кровь и аниме-товары в интернет-магазинах. Так и начинается современная вампирская комедия, которую определённо стоит посмотреть!







Производство: Япония
Студия: Studio Gokumi
Продолжительность: 12 серий x ~00:24:00
Перевод: Профессиональный (многоголосый, закадровый) | KANSAI (01-11 серия)
Перевод (12 серия) : Любительский (Одноголосый, закадровый) Animaunt (VieliS)

Качество: BDRip 1080p
Контейнер: MKV
Кодек: AVC
Видео: AVC, 1920x1080 (16:9), 23.976 fps, 3 978 kb/s (0.080 bit/pixel)
Аудио №1: AC-3, 48,0 КГц, 2 ch, 192 Кбит/сек, CBR | | Kansai
Аудио №2: FLAC, 48.0 kHz, 2 ch, 1 296 kb/s, VBR | | Japan (Оригинал)
Русские Субтитры: Есть (Crunchyroll) (Полный Перевод)


Список Серий
01. Типичный обитатель тьмы
02. Подруга Акари
03. Вампир идёт в школу
04. Софи и Эри
05. Вампир готовит
06. Интервью с вампиром
07. Летние каникулы, проведённые с вампиром
08. Последний день летних каникул
09. Вампир против охотника на вампиров
10. Вампир и Конец года
11. Простудная пора
12. Вампир и время перемен
MediaInfo
General
Unique ID : 215461675249164641424434940916755675994 (0xA21868C2D70187A5817ECA06D1C13B5A)
Complete name : [Moozzi2] Tonari no Kyuuketsuki-san - 01 (BD 1920x1080 x.264 Flac).mkv
Format : Matroska
Format version : Version 2
File size : 926 MiB
Duration : 23 min 41 s
Overall bit rate mode : Variable
Overall bit rate : 5 469 kb/s
Encoded date : UTC 2019-11-21 05:08:16
Writing application : mkvmerge v6.9.1 ('Blue Panther') 32bit built on Apr 18 2014 18:15:44
Writing library : libebml v1.3.0 + libmatroska v1.4.1

Video
ID : 1
Format : AVC
Format/Info : Advanced Video Codec
Format profile : [email protected]
Format settings : CABAC / 5 Ref Frames
Format settings, CABAC : Yes
Format settings, ReFrames : 5 frames
Codec ID : V_MPEG4/ISO/AVC
Duration : 23 min 41 s
Bit rate : 3 978 kb/s
Width : 1 920 pixels
Height : 1 080 pixels
Display aspect ratio : 16:9
Frame rate mode : Constant
Frame rate : 23.976 (24000/1001) FPS
Color space : YUV
Chroma subsampling : 4:2:0
Bit depth : 8 bits
Scan type : Progressive
Bits/(Pixel*Frame) : 0.080
Stream size : 674 MiB (73%)
Writing library : x264 core 157 r2969 d4099dd
Encoding settings : cabac=1 / ref=5 / deblock=1:1:1 / analyse=0x3:0x113 / me=umh / subme=9 / psy=1 / psy_rd=1.00:0.00 / mixed_ref=1 / me_range=32 / chroma_me=1 / trellis=1 / 8x8dct=1 / cqm=0 / deadzone=21,11 / fast_pskip=0 / chroma_qp_offset=-2 / threads=34 / lookahead_threads=2 / sliced_threads=0 / nr=0 / decimate=1 / interlaced=0 / bluray_compat=0 / stitchable=1 / constrained_intra=0 / bframes=3 / b_pyramid=2 / b_adapt=2 / b_bias=0 / direct=1 / weightb=1 / open_gop=0 / weightp=1 / keyint=240 / keyint_min=23 / scenecut=40 / intra_refresh=0 / rc_lookahead=40 / rc=crf / mbtree=1 / crf=16.0 / qcomp=0.65 / qpmin=0 / qpmax=69 / qpstep=4 / ip_ratio=1.40 / aq=1:1.00
Language : Japanese
Default : Yes
Forced : No

Audio #1
ID : 2
Format : AC-3
Format/Info : Audio Coding 3
Commercial name : Dolby Digital
Codec ID : A_AC3
Duration : 23 min 41 s
Bit rate mode : Constant
Bit rate : 192 kb/s
Channel(s) : 2 channels
Channel layout : L R
Sampling rate : 48.0 kHz
Frame rate : 31.250 FPS (1536 SPF)
Bit depth : 16 bits
Compression mode : Lossy
Stream size : 32.5 MiB (4%)
Title : Озвучка Kansai Studio [Сведение by Deadmauvlad]
Language : Russian
Default : No
Forced : No

Audio #2
ID : 3
Format : FLAC
Format/Info : Free Lossless Audio Codec
Codec ID : A_FLAC
Duration : 23 min 41 s
Bit rate mode : Variable
Bit rate : 1 296 kb/s
Channel(s) : 2 channels
Channel layout : L R
Sampling rate : 48.0 kHz
Frame rate : 11.719 FPS (4096 SPF)
Bit depth : 24 bits
Compression mode : Lossless
Stream size : 220 MiB (24%)
Writing library : libFLAC 1.3.2 (UTC 2017-01-01)
Language : Japanese
Default : No
Forced : No

Text
ID : 4
Format : ASS
Codec ID : S_TEXT/ASS
Codec ID/Info : Advanced Sub Station Alpha
Compression mode : Lossless
Language : Russian
Default : No
Forced : No

Скриншоты

ЦитатаDeadmauvlad писал:
1. Кансай не озвучили 12-ю серию пришлось сводить одноголоску.Если не нравится одноголоска или даб в целом есть нормальные сабы от кранчролл
2. Сведение и исправление озвучки (У Kansai) by Deadmauvlad


 

Вложения

  • 16,5 KB Просмотры: 0
    Личеров 0
    Сидеров 0
    Файлов 12
    Объем 11,5 GB

Привет!

Мы группа людей которые решили помочь другим в решении их проблем, а так же пользователям с поиском самых свежих и качественных инфопродуктов. За 4 с небольшим месяца мы создали этот форум на который заходят ежедневно тысячи человек и посещаемость постоянно растёт. Мы создали панель лицензирования для защиты PHP скриптов от воровства и SEO панель для мониторинга наших сайтов и выбора верной стратегии их развития. Мы надеемся что то что мы создали пригодится Вам и возможно Вы поможете нам развиваться и совершенствоваться вместе с Вами.

Статистика форума

Темы
406.554
Сообщения
464.754
Пользователи
83.527
Новый пользователь
ewerwerw

Приложения форума для iOS и Android


У ркн там нет власти ;)
Приватные разговоры
Помощь Пользователи
    Вы не присоединились ни к одной комнате.