За последнюю неделю опубликовано 46 новых материалов.
Инструкция новичку Путеводитель по форуму Прокси для Telegram Показать подсказки , это бомба!

Скачать Городской охотник / City Hunter / Sing Si Lip Yan (1993) BDRemux 1080р | P, A, L1 бесплатно через торрент

  • Поучаствуй (в качестве покупателя) в любых пяти совместных покупках (кроме завершённых и "Моментальных") и получи группу "Новичок" навсегда -> ссылка на раздел
  • Получай до 480 рублей за каждого приглашенного пользователя!
    представляем Вам очередное расширение партнерской программы, подробности описаны тут -> ссылка
  • 90% материалов доступно к скачиванию после простой регистрации!
    Если же ты хочешь скачивать материалы без требования оставлять отзывы то получи группу "Новичок", 10 способов повышения описаны тут -> ссылка
  • К сожалению количество битых ссылок растет и мы уже не можем их оперативно восстанавливать поэтому просим помощи у каждого нашего пользователя.
    С сегодняшнего дня, за каждую восстановленную ссылку мы заплатим Вам.
    Подробнее тут -> ссылка
  • Перенесем твои заслуги с другого ресурса!
    Мы понимаем как сложно прокачивать аккаунты на форумах, вроде раскачал аккаунт, а тут появляется ресурс в 100 раз круче но тоже с системой прокачки и снова качать аккаунт...
    Предлагаем вам перенести Ваши заслуги на другом подобном ресурсе к нам.
    Подробности описаны тут -> ссылка
  • Вы можете получать по 2.5% с каждой покупки и продажи на маркете! Подробности в теме Партнёрская программа
Если Вы не хотите скачивать, Вы всегда можетепосмотретьонлайн, просто нажмите кнопку ниже :

Открыть плеер

Torrent_Bot

Торрент-Бот
Бот форума
4 Окт 2016
91
163
20



Информация о фильме
Название: Городской охотник
Оригинальное название: City Hunter / Sing Si Lip Yan
Год выхода: 1993
Жанр: боевик, комедия, криминал
Режиссер: Вон Цзин
В ролях: Джеки Чан / Jackie Chan, Джои Вон / Joey Wong, Кумико Гото / Kumiko Goto, Ричард Нортон / Richard Norton, Чингми Яу / Chingmy Yau, Гэри Дэниелс / Gary Daniels, Кэрол Ван / Carol Wan, Леон Лай / Leon Lai, Кэн Ло / Ken Lo

Описание: Рю Саэба — плейбой, сыщик, наемник и любитель женщин. К нему обращается газетный магнат Имамура, у которого пропала дочь. Рю пробирается на роскошный круизный лайнер, на котором разношерстная банда преступников держит свою жертву. Доступным лишь одному ему способом парню удается изрядно подпортить путешествие этим подонкам и освободить прекраснейшую из женщин.



Страна: Гонконг, Япония
Продолжительность: 01:39:41
Перевод: Профессиональный (многоголосый закадровый) + авторский (одноголосый закадровый) + любительский (одноголосый закадровый)

Файл
Качество: BDRemux 1080р
Видео: MPEG-4 AVC, 32 Мбит/сек, 1080p (1.85:1)
Аудио 1: Русский / AB Video по заказу Первого канала |Профессиональный многоголосый| (AC3, 48 кГц, 2.0, 192 кбит/сек)
Аудио 2: Русский / Инис по заказу Союз Видео |Профессиональный многоголосый| (AC3, 48 кГц, 2.0, 192 кбит/сек)
Аудио 3: Русский / Антон Карповский |Авторский одноголосый| (AC3, 48 кГц, 5.1, 448 кбит/сек)
Аудио 4: Русский / Петр Карцев |Авторский одноголосый| (AC3, 48 кГц, 2.0, 192 кбит/сек)
Аудио 5: Русский / Юрий Живов |Авторский одноголосый| (DTS-HDMA, 48 кГц, 5.1, ~3838 кбит/сек, 24 бит)
Аудио 6: Русский / Юрий Сербин |Авторский одноголосый| (DTS-HDMA, 48 кГц, 5.1, ~4044 кбит/сек, 24 бит)
Аудио 7: Русский / Неизвестный |Любительский одноголосый| (AC3, 48 кГц, 2.0, ~192 кбит/сек)
Аудио 8: Оригинальный кантонский диалект, реставрированный (DTS-HDMA, 48 кГц, 5.1, ~4000 кбит/сек, 24 бит)
Аудио 9: Оригинальный кантонский диалект (AC3, 48 кГц, 2.0, ~192 кбит/сек, 16 бит)
Аудио 10: Английский дубляж, реставрированный (DTS-HDMA, 48 кГц, 5.1, ~4000 кбит/сек, 24 бит)
Аудио 11: Английский дубляж (AC3, 48 кГц, 2.0, ~192 кбит/сек, 16 бит)

Скриншоты
MediaInfo
Видео
Идентификатор : 1
Формат : AVC
Формат/Информация : Advanced Video Codec
Профиль формата : [email protected]
Настройки формата : CABAC / 3 Ref Frames
Параметр CABAC формата : Да
Параметр RefFrames формата : 3 кадра
Идентификатор кодека : V_MPEG4/ISO/AVC
Продолжительность : 1 ч. 40 м.
Вид битрейта : Переменный
Битрейт : 32,0 Мбит/сек
Ширина : 1920 пикселей
Высота : 1080 пикселей
Соотношение сторон : 16:9
Режим частоты кадров : Постоянный
Частота кадров : 23,976 (24000/1001) кадра/сек
Цветовое пространство : YUV
Субдискретизация насыщенности : 4:2:0
Битовая глубина : 8 бит
Тип развёртки : Прогрессивная
Бит/(Пиксели*Кадры) : 0.644
Размер потока : 21,7 Гбайт (65%)
Заголовок : Eureka Entertainment, 1920x1080 |16:9|, 23.976 кадра/сек., AVC |[email protected]|
Библиотека кодирования : x264 core 148 r2705 3f5ed56
Настройки программы : cabac=1 / ref=4 / deblock=0:-1:-1 / analyse=0x3:0x133 / me=umh / subme=10 / psy=1 / psy_rd=1.00:0.15 / mixed_ref=1 / me_range=24 / chroma_me=1 / trellis=2 / 8x8dct=1 / cqm=0 / deadzone=21,11 / fast_pskip=1 / chroma_qp_offset=-3 / threads=34 / lookahead_threads=2 / sliced_threads=0 / slices=4 / nr=0 / decimate=1 / interlaced=0 / bluray_compat=1 / constrained_intra=0 / bframes=3 / b_pyramid=1 / b_adapt=2 / b_bias=0 / direct=3 / weightb=1 / open_gop=1 / weightp=1 / keyint=24 / keyint_min=1 / scenecut=40 / intra_refresh=0 / rc_lookahead=24 / rc=cbr / mbtree=0 / bitrate=32000 / ratetol=1.0 / qcomp=0.60 / qpmin=0 / qpmax=69 / qpstep=4 / vbv_maxrate=32000 / vbv_bufsize=30000 / nal_hrd=vbr / filler=0 / ip_ratio=1.40 / pb_ratio=1.30 / aq=1:0.20
Язык : Chinese
Default : Да
Forced : Нет
Цветовой диапазон : Limited
Основные цвета : BT.709
Характеристики трансфера : BT.709
Коэффициенты матрицы : BT.709

Аудио #1
Идентификатор : 2
Формат : AC-3
Формат/Информация : Audio Coding 3
Коммерческое название : Dolby Digital
Идентификатор кодека : A_AC3
Продолжительность : 1 ч. 39 м.
Вид битрейта : Постоянный
Битрейт : 192 Кбит/сек
Каналы : 2 канала
ChannelLayout : L R
Частота : 48,0 КГц
Частота кадров : 31,250 кадров/сек (1536 SPF)
Битовая глубина : 16 бит
Метод сжатия : С потерями
Размер потока : 137 Мбайт (0%)
Заголовок : Телеканал "Первый канал" (Профессиональный многоголосый) |AC3, 2.0, 192 кбит/сек., 48 кГц, 16 бит|
Язык : Russian
ServiceKind : Complete Main
Default : Да
Forced : Нет

Аудио #2
Идентификатор : 3
Формат : AC-3
Формат/Информация : Audio Coding 3
Коммерческое название : Dolby Digital
Идентификатор кодека : A_AC3
Продолжительность : 1 ч. 39 м.
Вид битрейта : Постоянный
Битрейт : 192 Кбит/сек
Каналы : 2 канала
ChannelLayout : L R
Частота : 48,0 КГц
Частота кадров : 31,250 кадров/сек (1536 SPF)
Битовая глубина : 16 бит
Метод сжатия : С потерями
Размер потока : 137 Мбайт (0%)
Заголовок : Инис по заказу Союз Видео (Профессиональный многоголосый) |AC3, 2.0, 192 кбит/сек., 48 кГц, 16 бит|
Язык : Russian
ServiceKind : Complete Main
Default : Нет
Forced : Нет

Аудио #3
Идентификатор : 4
Формат : AC-3
Формат/Информация : Audio Coding 3
Коммерческое название : Dolby Digital
Идентификатор кодека : A_AC3
Продолжительность : 1 ч. 39 м.
Вид битрейта : Постоянный
Битрейт : 448 Кбит/сек
Каналы : 6 каналов
ChannelLayout : L R C LFE Ls Rs
Частота : 48,0 КГц
Частота кадров : 31,250 кадров/сек (1536 SPF)
Битовая глубина : 16 бит
Метод сжатия : С потерями
Размер потока : 320 Мбайт (1%)
Заголовок : Антон Карповский (Авторский одноголосый) |AC3, 5.1, 448 кбит/сек., 48 кГц, 16 бит|
Язык : Russian
ServiceKind : Complete Main
Default : Нет
Forced : Нет

Аудио #4
Идентификатор : 5
Формат : AC-3
Формат/Информация : Audio Coding 3
Коммерческое название : Dolby Digital
Идентификатор кодека : A_AC3
Продолжительность : 1 ч. 39 м.
Вид битрейта : Постоянный
Битрейт : 192 Кбит/сек
Каналы : 2 канала
ChannelLayout : L R
Частота : 48,0 КГц
Частота кадров : 31,250 кадров/сек (1536 SPF)
Битовая глубина : 16 бит
Метод сжатия : С потерями
Размер потока : 137 Мбайт (0%)
Заголовок : Петр Карцев (Авторский одноголосый) |AC3, 2.0, 192 кбит/сек., 48 кГц, 16 бит|
Язык : Russian
ServiceKind : Complete Main
Default : Нет
Forced : Нет

Аудио #5
Идентификатор : 6
Формат : DTS XLL
Формат/Информация : Digital Theater Systems
Коммерческое название : DTS-HD Master Audio
Идентификатор кодека : A_DTS
Продолжительность : 1 ч. 39 м.
Вид битрейта : Переменный
Битрейт : 3837 Кбит/сек
Каналы : 6 каналов
ChannelLayout : C L R Ls Rs LFE
Частота : 48,0 КГц
Частота кадров : 93,750 кадра/сек (512 SPF)
Битовая глубина : 24 бит
Метод сжатия : Без потерь
Размер потока : 2,67 Гбайт (8%)
Заголовок : Юрий Живов (Авторский одноголосый) |DTS-HDMA, 5.1, 3838 кбит/сек, 48 кГц, 24 бит|
Язык : Russian
Default : Нет
Forced : Нет

Аудио #6
Идентификатор : 7
Формат : DTS XLL
Формат/Информация : Digital Theater Systems
Коммерческое название : DTS-HD Master Audio
Идентификатор кодека : A_DTS
Продолжительность : 1 ч. 39 м.
Вид битрейта : Переменный
Битрейт : 4043 Кбит/сек
Каналы : 6 каналов
ChannelLayout : C L R Ls Rs LFE
Частота : 48,0 КГц
Частота кадров : 93,750 кадра/сек (512 SPF)
Битовая глубина : 24 бит
Метод сжатия : Без потерь
Размер потока : 2,82 Гбайт (8%)
Заголовок : Юрий Сербин (Авторский одноголосый) |DTS-HDMA, 5.1, 4044 кбит/сек, 48 кГц, 24 бит|
Язык : Russian
Default : Нет
Forced : Нет

Аудио #7
Идентификатор : 8
Формат : AC-3
Формат/Информация : Audio Coding 3
Коммерческое название : Dolby Digital
Идентификатор кодека : A_AC3
Продолжительность : 1 ч. 39 м.
Вид битрейта : Постоянный
Битрейт : 192 Кбит/сек
Каналы : 2 канала
ChannelLayout : L R
Частота : 48,0 КГц
Частота кадров : 31,250 кадров/сек (1536 SPF)
Битовая глубина : 16 бит
Метод сжатия : С потерями
Размер потока : 137 Мбайт (0%)
Заголовок : Неизвестный (Любительский одноголосый) |AC3, 2.0, 192 кбит/сек., 48 кГц, 16 бит|
Язык : Russian
ServiceKind : Complete Main
Default : Нет
Forced : Нет

Аудио #8
Идентификатор : 9
Формат : DTS XLL
Формат/Информация : Digital Theater Systems
Коммерческое название : DTS-HD Master Audio
Идентификатор кодека : A_DTS
Продолжительность : 1 ч. 39 м.
Вид битрейта : Переменный
Битрейт : 3857 Кбит/сек
Каналы : 6 каналов
ChannelLayout : C L R Ls Rs LFE
Частота : 48,0 КГц
Частота кадров : 93,750 кадра/сек (512 SPF)
Битовая глубина : 24 бит
Метод сжатия : Без потерь
Размер потока : 2,69 Гбайт (8%)
Заголовок : Оригинальный кантонский (Реставрированный) |DTS-HDMA, 5.1, ~4000 кбит/сек, 48 кГц, 24 бит|
Язык : Chinese
Default : Нет
Forced : Нет

Аудио #9
Идентификатор : 10
Формат : AC-3
Формат/Информация : Audio Coding 3
Коммерческое название : Dolby Digital
Идентификатор кодека : A_AC3
Продолжительность : 1 ч. 39 м.
Вид битрейта : Постоянный
Битрейт : 192 Кбит/сек
Каналы : 2 канала
ChannelLayout : L R
Частота : 48,0 КГц
Частота кадров : 31,250 кадров/сек (1536 SPF)
Битовая глубина : 16 бит
Метод сжатия : С потерями
Размер потока : 137 Мбайт (0%)
Заголовок : Оригинальный кантонский |AC3, 2.0, 192 кбит/сек., 48 кГц, 16 бит|
Язык : Chinese
ServiceKind : Complete Main
Default : Нет
Forced : Нет

Аудио #10
Идентификатор : 11
Формат : DTS XLL
Формат/Информация : Digital Theater Systems
Коммерческое название : DTS-HD Master Audio
Идентификатор кодека : A_DTS
Продолжительность : 1 ч. 39 м.
Вид битрейта : Переменный
Битрейт : 3639 Кбит/сек
Каналы : 6 каналов
ChannelLayout : C L R Ls Rs LFE
Частота : 48,0 КГц
Частота кадров : 93,750 кадра/сек (512 SPF)
Битовая глубина : 24 бит
Метод сжатия : Без потерь
Размер потока : 2,53 Гбайт (8%)
Заголовок : Английскй дубляж (Реставрированный) |DTS-HDMA, 5.1, ~4000 кбит/сек, 48 кГц, 24 бит|
Язык : English
Default : Нет
Forced : Нет

Аудио #11
Идентификатор : 12
Формат : AC-3
Формат/Информация : Audio Coding 3
Коммерческое название : Dolby Digital
Идентификатор кодека : A_AC3
Продолжительность : 1 ч. 39 м.
Вид битрейта : Постоянный
Битрейт : 192 Кбит/сек
Каналы : 2 канала
ChannelLayout : L R
Частота : 48,0 КГц
Частота кадров : 31,250 кадров/сек (1536 SPF)
Битовая глубина : 16 бит
Метод сжатия : С потерями
Размер потока : 137 Мбайт (0%)
Заголовок : Английский дубляж |AC3, 2.0, 192 кбит/сек., 48 кГц, 16 бит|
Язык : English
ServiceKind : Complete Main
Default : Нет
Forced : Нет

Текст
Идентификатор : 13
Формат : ASS
Идентификатор кодека : S_TEXT/ASS
Идентификатор кодека/Информация : Advanced Sub Station Alpha
Продолжительность : 1 ч. 35 м.
Битрейт : 85 бит/сек
ElementCount : 989
Метод сжатия : Без потерь
Размер потока : 59,6 Кбайт (0%)
Заголовок : Полные русские субтитры
Язык : Russian
Default : Да
Forced : Нет
 

Вложения

  • 84,8 KB Просмотры: 1
    Личеров 0
    Сидеров 0
    Файлов 1
    Объем 33,6 GB

Привет!

Мы группа людей которые решили помочь другим в решении их проблем, а так же пользователям с поиском самых свежих и качественных инфопродуктов. За 4 с небольшим месяца мы создали этот форум на который заходят ежедневно тысячи человек и посещаемость постоянно растёт. Мы создали панель лицензирования для защиты PHP скриптов от воровства и SEO панель для мониторинга наших сайтов и выбора верной стратегии их развития. Мы надеемся что то что мы создали пригодится Вам и возможно Вы поможете нам развиваться и совершенствоваться вместе с Вами.

Статистика форума

Темы
410.521
Сообщения
469.056
Пользователи
85.937
Новый пользователь
bvcxz88

Приложения форума для iOS и Android


У ркн там нет власти ;)
Приватные разговоры
Помощь Пользователи
    Вы не присоединились ни к одной комнате.