За последнюю неделю опубликовано 98 новых материалов.
Инструкция новичку Путеводитель по форуму Прокси для Telegram Показать подсказки , это бомба!

Скачать Город чудищ / Youjuu Toshi (1987) DVDRip-AVC | L2 бесплатно через торрент

  • Поучаствуй (в качестве покупателя) в любых пяти совместных покупках (кроме завершённых и "Моментальных") и получи группу "Новичок" навсегда -> ссылка на раздел
  • Получай до 480 рублей за каждого приглашенного пользователя!
    представляем Вам очередное расширение партнерской программы, подробности описаны тут -> ссылка
  • 90% материалов доступно к скачиванию после простой регистрации!
    Если же ты хочешь скачивать материалы без требования оставлять отзывы то получи группу "Новичок", 10 способов повышения описаны тут -> ссылка
  • К сожалению количество битых ссылок растет и мы уже не можем их оперативно восстанавливать поэтому просим помощи у каждого нашего пользователя.
    С сегодняшнего дня, за каждую восстановленную ссылку мы заплатим Вам.
    Подробнее тут -> ссылка
  • Перенесем твои заслуги с другого ресурса!
    Мы понимаем как сложно прокачивать аккаунты на форумах, вроде раскачал аккаунт, а тут появляется ресурс в 100 раз круче но тоже с системой прокачки и снова качать аккаунт...
    Предлагаем вам перенести Ваши заслуги на другом подобном ресурсе к нам.
    Подробности описаны тут -> ссылка
  • Вы можете получать по 2.5% с каждой покупки и продажи на маркете! Подробности в теме Партнёрская программа

Torrent_Bot

Торрент-Бот
Бот форума
4 Окт 2016
79
194
20
Информация о фильме
Название: Город чудищ
Оригинальное название: Wicked City / Youjuu Toshi
Год выхода: 1987
Жанр: фантастика, приключения, ужасы, эротика
Режиссер: Кавадзири Ёсиаки
Художник: Ога Кадзуо
В ролях: Аоно Такэси, Яра Юсаку, Фудзита Тосико, Нагай Итиро, Ёко Мари

О фильме:
Мало кому известно, что параллельно знакомому нам миру существует альтернативный Чёрный Мир, который населён демонами, способными изменять свой внешний облик и обладающими мощными магическими силами. Столкновение обитателей двух миров чревато нежелательными последствиями, а потому раз в пятьсот лет между ними подписывается мирное соглашение, предотвращающее проникновение демонов в наш мир. На страже соблюдения перемирия стоят тайные элитные подразделения, называемые Чёрными Стражами, в состав которых входят представители обеих сторон. Срок действия существующего договора уже подходит к концу, и для подписания нового в наш мир прибывает Джузеппе, особый духовный медиум, без чьего присутствия заключение соглашения невозможно. Однако в Чёрном Мире зреет заговор некой зловещей секты, ставящей целью сорвать подписание и повергнуть миры в хаос. Злоумышленники планируют устранить Джузеппе, и для его охраны назначена пара лучших Чёрных Стражей - плейбой Таки с нашей стороны и неотразимая Мэки, женщина-демон. В их руках находится судьба мира.
Фильм прославленного режиссёра Ёсиаки Кавадзири, сочетающий стильный эротизм, мрачную атмосферу фильмов-нуар и стремительную динамику боевика.
© Алексей Фадеев, World Art

86da48c54d8aa1d0985e3b73d789e8c0.gifb72ac92fe3c8fc5e08c60431eedaa400.gif
World Art | MAL

Страна: Япония
Студия: Madhouse Studios
Продолжительность: 01:22:15
Язык: Русский, Японский
Перевод: Любительский (двухголосый, закадровый)

Файл
Качество: DVDRip-AVC
Формат: MKV
Кодек: H.264
Видео: 704x480, 23.976 fps, 2771 kbps
Звук: Аудио кодек: AC3
Аудио RUS: 48.0 kHz, AC3, 2 ch, 640 kbps
Аудио JAP: 48.0 kHz, AC3, 2 ch, 384 kbps
Субтитры: русские (встроенные полный перевод, STR) - Ульса

Релиз от:
Озвучивание: Azazel, NesTea
Перевод: Ульса
Тайминг и работа со звуком: ERASP, RedZef

Скриншоты
cade2c1db4ae489bda8b4865f12711b2.jpg10a25df861ef63f466cb0a320cc4f036.jpg8762632668426ce9d19b48f81934139c.jpgf1e666a2c905fdcf1b43d5c6433300e7.jpg7e1322a365af99444896c04860fb690c.jpg
MediaInfo
General
Format : Matroska
Format version : Version 4 / Version 2
File size : 2.18 GiB
Duration : 1h 22mn
Overall bit rate : 3 797 Kbps
Encoded date : UTC 2016-02-28 09:40:28
Writing application : mkvmerge v8.3.0 ('Over the Horizon') 64bit
Writing library : libebml v1.3.1 + libmatroska v1.4.2
DURATION : 01:18:48.310000000
NUMBER_OF_FRAMES : 720
NUMBER_OF_BYTES : 42526
_STATISTICS_WRITING_APP : mkvmerge v8.3.0 ('Over the Horizon') 64bit
_STATISTICS_WRITING_DATE_UTC : 2016-02-28 09:40:28
_STATISTICS_TAGS : BPS DURATION NUMBER_OF_FRAMES NUMBER_OF_BYTES

Video
ID : 1
Format : AVC
Format/Info : Advanced Video Codec
Format profile : [email protected]
Format settings, CABAC : Yes
Format settings, ReFrames : 9 frames
Codec ID : V_MPEG4/ISO/AVC
Duration : 1h 22mn
Bit rate : 2 697 Kbps
Width : 704 pixels
Height : 480 pixels
Display aspect ratio : 4:3
Original display aspect ratio : 3:2
Frame rate mode : Constant
Frame rate : 23.976 fps
Standard : NTSC
Color space : YUV
Chroma subsampling : 4:2:0
Bit depth : 8 bits
Scan type : Progressive
Bits/(Pixel*Frame) : 0.333
Stream size : 1.55 GiB (71%)
Writing library : x264 core 65 r1046M 71d34b4
Encoding settings : cabac=1 / ref=9 / deblock=1:0:0 / analyse=0x3:0x113 / me=umh / subme=7 / psy_rd=1.3:0.4 / mixed_ref=1 / me_range=16 / chroma_me=1 / trellis=2 / 8x8dct=1 / cqm=0 / deadzone=21,11 / chroma_qp_offset=-4 / threads=3 / nr=0 / decimate=0 / mbaff=0 / bframes=5 / b_pyramid=1 / b_adapt=1 / b_bias=0 / direct=0 / wpredb=1 / keyint=250 / keyint_min=25 / scenecut=40(pre) / rc=crf / crf=19.0 / qcomp=0.60 / qpmin=10 / qpmax=51 / qpstep=4 / ip_ratio=1.40 / pb_ratio=1.30 / aq=1:0.90
Language : Japanese
Default : Yes
Forced : No
DURATION : 01:22:15.598000000
NUMBER_OF_FRAMES : 118336
NUMBER_OF_BYTES : 1709285112
_STATISTICS_WRITING_APP : mkvmerge v8.3.0 ('Over the Horizon') 64bit
_STATISTICS_WRITING_DATE_UTC : 2016-02-28 09:40:28
_STATISTICS_TAGS : BPS DURATION NUMBER_OF_FRAMES NUMBER_OF_BYTES

Audio #1
ID : 2
Format : AC-3
Format/Info : Audio Coding 3
Mode extension : CM (complete main)
Format settings, Endianness : Big
Codec ID : A_AC3
Duration : 1h 22mn
Bit rate mode : Constant
Bit rate : 640 Kbps
Channel(s) : 2 channels
Channel positions : Front: L R
Sampling rate : 48.0 KHz
Bit depth : 16 bits
Compression mode : Lossy
Stream size : 377 MiB (17%)
Title : Azazel & NesTea
Language : Russian
Default : Yes
Forced : No

Audio #2
ID : 3
Format : AC-3
Format/Info : Audio Coding 3
Mode extension : CM (complete main)
Format settings, Endianness : Big
Codec ID : A_AC3
Duration : 1h 22mn
Bit rate mode : Constant
Bit rate : 384 Kbps
Channel(s) : 2 channels
Channel positions : Front: L R
Sampling rate : 48.0 KHz
Bit depth : 16 bits
Compression mode : Lossy
Stream size : 226 MiB (10%)
Title : JAP Original
Language : Japanese
Default : No
Forced : No

Text
ID : 4
Format : UTF-8
Codec ID : S_TEXT/UTF8
Codec ID/Info : UTF-8 Plain Text
Title : Полные субтитры
Language : Russian
Default : Yes
Forced : No
 

Вложения

Привет!

Мы группа людей которые решили помочь другим в решении их проблем, а так же пользователям с поиском самых свежих и качественных инфопродуктов. За 4 с небольшим месяца мы создали этот форум на который заходят ежедневно тысячи человек и посещаемость постоянно растёт. Мы создали панель лицензирования для защиты PHP скриптов от воровства и SEO панель для мониторинга наших сайтов и выбора верной стратегии их развития. Мы надеемся что то что мы создали пригодится Вам и возможно Вы поможете нам развиваться и совершенствоваться вместе с Вами.

Статистика форума

Темы
414.370
Сообщения
475.396
Пользователи
96.561
Новый пользователь
starushka

Приложения форума для iOS и Android


У ркн там нет власти ;)
Приватные разговоры
Помощь Пользователи
    Вы не присоединились ни к одной комнате.