За последнюю неделю опубликовано 14 новых материалов.
Инструкция новичку Путеводитель по форуму Прокси для Telegram Показать подсказки , это бомба!

Скачать Город чудищ / Wicked City (1987) BDRip от Deadmauvlad | L2 бесплатно через торрент

  • Поучаствуй (в качестве покупателя) в любых пяти совместных покупках (кроме завершённых и "Моментальных") и получи группу "Новичок" навсегда -> ссылка на раздел
  • Получай до 480 рублей за каждого приглашенного пользователя!
    представляем Вам очередное расширение партнерской программы, подробности описаны тут -> ссылка
  • 90% материалов доступно к скачиванию после простой регистрации!
    Если же ты хочешь скачивать материалы без требования оставлять отзывы то получи группу "Новичок", 10 способов повышения описаны тут -> ссылка
  • К сожалению количество битых ссылок растет и мы уже не можем их оперативно восстанавливать поэтому просим помощи у каждого нашего пользователя.
    С сегодняшнего дня, за каждую восстановленную ссылку мы заплатим Вам.
    Подробнее тут -> ссылка
  • Перенесем твои заслуги с другого ресурса!
    Мы понимаем как сложно прокачивать аккаунты на форумах, вроде раскачал аккаунт, а тут появляется ресурс в 100 раз круче но тоже с системой прокачки и снова качать аккаунт...
    Предлагаем вам перенести Ваши заслуги на другом подобном ресурсе к нам.
    Подробности описаны тут -> ссылка
  • Вы можете получать по 2.5% с каждой покупки и продажи на маркете! Подробности в теме Партнёрская программа

Torrent_Bot

Торрент-Бот
Бот форума
4 Окт 2016
122
116
20


Информация о фильме
Название: Город чудищ
Оригинальное название: Wicked City
Год: 1987
Жанр:приключения, фантастика, эротика, ужасы
Премьера: 25 апреля 1987
Режиссер: Кавадзири Ёсиаки
Автор оригинала: Кикути Хидэюки
В главных ролях: Юсаку Яра, Тосико Фудзита, Итиро Нагаи, Такэси Аоно, Мари Ёко, Тамио Оки, Кодзи Тотани, Ясуо Мурамацу, Кадзухико Кисино, Ариса Андо

Описание: Мало кому известно, что параллельно знакомому нам миру существует альтернативный Чёрный Мир, который населён демонами, способными изменять свой внешний облик и обладающими мощными магическими силами. Столкновение обитателей двух миров чревато нежелательными последствиями, а потому раз в пятьсот лет между ними подписывается мирное соглашение, предотвращающее проникновение демонов в наш мир. На страже соблюдения перемирия стоят тайные элитные подразделения, называемые Чёрными Стражами, в состав которых входят представители обеих сторон. Срок действия существующего договора уже подходит к концу, и для подписания нового в наш мир прибывает Джузеппе, особый духовный медиум, без чьего присутствия заключение соглашения невозможно. Однако в Чёрном Мире зреет заговор некой зловещей секты, ставящей целью сорвать подписание и повергнуть миры в хаос. Злоумышленники планируют устранить Джузеппе, и для его охраны назначена пара лучших Чёрных Стражей - плейбой Таки с нашей стороны и неотразимая Мэки, женщина-демон. В их руках находится судьба мира.







Фильм прославленного режиссёра Ёсиаки Кавадзири, сочетающий стильный эротизм, мрачную атмосферу фильмов-нуар и стремительную динамику боевика.


Производство: Япония
Студия: MadHouse Ltd.
Перевод: Любительский (двухголосый, закадровый) [Azazel & NesTea]
Возрастное ограничение: Запрещено для детей



Качество: BDRip [**Исходник: Blu-ray Remux thx MERDOK]
Контейнер: AVI
Кодек: XviD
Видео: 720x528 (4:3), 23.976 fps, 1 962 kb/s (0.215 bit/pixel)
Аудио №1: AC-3, 48,0 КГц, 2 ch, 192 Кбит/сек, CBR | | Azazel & NesTea
Аудио №2: AC-3, 48,0 КГц, 2 ch, 192 /сек, CBR | | Japan (Оригинал)
Субтитры: Отсутствуют
MediaInfo
General
Complete name : [Deadmau- RAWS] Wicked.City.1987.RUS.JAP.BDRip.Deadmauvlad.1.36.GB.avi
Format : AVI
Format/Info : Audio Video Interleave
File size : 1.36 GiB
Duration : 1 h 22 min
Overall bit rate : 2 360 kb/s
Movie name : [Deadmau- RAWS] Wicked.City.1987.RUS.JAP.BDRip.Deadmauvlad.1.36.GB
Director : Encoder by Deadmauvlad
Genre : фэнтези, эротика
Writing application : VirtualDubMod 1.5.10.3 | www.virtualdub-fr.org || (build 2550/release)
Original source form/Name : Аниме
Copyright : Encoder by Deadmauvlad
Comment : Encoder by Deadmauvlad

Video
ID : 0
Format : MPEG-4 Visual
Format profile : Advanced Simple@L5
Format settings : BVOP1 / Custom Matrix
Format settings, BVOP : 1
Format settings, QPel : No
Format settings, GMC : No warppoints
Format settings, Matrix : Custom
Codec ID : XVID
Codec ID/Hint : XviD
Duration : 1 h 22 min
Bit rate : 1 962 kb/s
Width : 720 pixels
Height : 528 pixels
Display aspect ratio : 4:3
Frame rate : 23.976 (24000/1001) FPS
Color space : YUV
Chroma subsampling : 4:2:0
Bit depth : 8 bits
Scan type : Progressive
Compression mode : Lossy
Bits/(Pixel*Frame) : 0.215
Stream size : 1.13 GiB (83%)
Writing library : XviD 73

Audio #1
ID : 1
Format : AC-3
Format/Info : Audio Coding 3
Commercial name : Dolby Digital
Codec ID : 2000
Duration : 1 h 22 min
Bit rate mode : Constant
Bit rate : 192 kb/s
Channel(s) : 2 channels
Channel layout : L R
Sampling rate : 48.0 kHz
Frame rate : 31.250 FPS (1536 SPF)
Bit depth : 16 bits
Compression mode : Lossy
Stream size : 113 MiB (8%)
Alignment : Split accross interleaves
Interleave, duration : 42 ms (1.00 video frame)
Interleave, preload duration : 500 ms


Audio #2
ID : 2
Format : AC-3
Format/Info : Audio Coding 3
Commercial name : Dolby Digital
Codec ID : 2000
Duration : 1 h 22 min
Bit rate mode : Constant
Bit rate : 192 kb/s
Channel(s) : 2 channels
Channel layout : L R
Sampling rate : 48.0 kHz
Frame rate : 31.250 FPS (1536 SPF)
Bit depth : 16 bits
Compression mode : Lossy
Stream size : 113 MiB (8%)
Alignment : Split accross interleaves
Interleave, duration : 42 ms (1.00 video frame)
Interleave, preload duration : 500 ms
Скриншоты

Резервные скриншоты

Релиз / Автор рипа: Deadmauvlad

 

Вложения

  • 2,7 KB Просмотры: 0
    Личеров 0
    Сидеров 0
    Файлов 1
    Объем 1,4 GB

Привет!

Мы группа людей которые решили помочь другим в решении их проблем, а так же пользователям с поиском самых свежих и качественных инфопродуктов. За 4 с небольшим месяца мы создали этот форум на который заходят ежедневно тысячи человек и посещаемость постоянно растёт. Мы создали панель лицензирования для защиты PHP скриптов от воровства и SEO панель для мониторинга наших сайтов и выбора верной стратегии их развития. Мы надеемся что то что мы создали пригодится Вам и возможно Вы поможете нам развиваться и совершенствоваться вместе с Вами.

Статистика форума

Темы
385.063
Сообщения
430.481
Пользователи
63.199
Новый пользователь
Маша13

Приложения форума для iOS и Android


У ркн там нет власти ;)
Приватные разговоры
Помощь Пользователи
    Вы не присоединились ни к одной комнате.