За последнюю неделю опубликовано 35 новых материалов.
Инструкция новичку Путеводитель по форуму Прокси для Telegram Показать подсказки , это бомба!

Скачать Город-бомба / Bomb City (2017) BDRemux 1080p | A бесплатно через торрент

  • Поучаствуй (в качестве покупателя) в любых пяти совместных покупках (кроме завершённых и "Моментальных") и получи группу "Новичок" навсегда -> ссылка на раздел
  • Получай до 480 рублей за каждого приглашенного пользователя!
    представляем Вам очередное расширение партнерской программы, подробности описаны тут -> ссылка
  • 90% материалов доступно к скачиванию после простой регистрации!
    Если же ты хочешь скачивать материалы без требования оставлять отзывы то получи группу "Новичок", 10 способов повышения описаны тут -> ссылка
  • К сожалению количество битых ссылок растет и мы уже не можем их оперативно восстанавливать поэтому просим помощи у каждого нашего пользователя.
    С сегодняшнего дня, за каждую восстановленную ссылку мы заплатим Вам.
    Подробнее тут -> ссылка
  • Перенесем твои заслуги с другого ресурса!
    Мы понимаем как сложно прокачивать аккаунты на форумах, вроде раскачал аккаунт, а тут появляется ресурс в 100 раз круче но тоже с системой прокачки и снова качать аккаунт...
    Предлагаем вам перенести Ваши заслуги на другом подобном ресурсе к нам.
    Подробности описаны тут -> ссылка
  • Вы можете получать по 2.5% с каждой покупки и продажи на маркете! Подробности в теме Партнёрская программа
Если Вы не хотите скачивать, Вы всегда можетепосмотретьонлайн, просто нажмите кнопку ниже :

Открыть плеер

Torrent_Bot

Торрент-Бот
Бот форума
4 Окт 2016
93
155
20
Информация о фильме
Название: Город-бомба
Оригинальное название: Bomb City
Год выхода: 2017
Жанр: драма, криминал
Режиссер: Джэми Брукс
В ролях: Дэйв Дэвис, Гленн Моршауэр, Логан Хаффман, Лорелей Линклейтер, Эдди Хэсселл, Henry Knotts, Доминик Райан Гэбриел, Люк Шелтон, Мэймэй Ренфроу, Майкл Сэйтц

О фильме:
О культурной неприязни к группе панков в консервативном Техасе. Чем дальше заходит их борьба с ненавистью, тем больше она напоминает парад насилия и жестокости, ставя под вопрос моральные устои, на которых держится американское правосудие.



Страна: США
Студия: 3rd Identity Films, Bomb City Film
Продолжительность: 01:38;29
Перевод: Авторский (одноголосый, закадровый) М.Яроцкий (kyberpunk)

Файл
Кодек: H.264
Качество: BDRemux 1080p
Видео: 1920x1080 (16:9), 23.976fps, MPEG-4 AVC, ~18.9 Mb/s, 0.381 bit/pixel
Звук:
№1: DTS 48000Hz 6ch 3 568 kb/s / 1 509 kb/s [A: AVO - М.Яроцкий (kyberpunk) [rus] (dts-hd ma, 48000 Hz, 5.1, s24)]
№2: DTS 48000Hz 6ch 3 514 kb/s / 1 509 kb/s [A: Original [eng] (dts-hd ma, 48000 Hz, 5.1, s24)]
Субтитры: Русские (песни), английские

MediaInfo
General
Unique ID : 141715320955414880544532291782847110869 (0x6A9D60C5F6110002E843BB8D39F61ED5)
Complete name : Город-бомба - Bomb City (2017) BDRemux 1080p.mkv
Format : Matroska
Format version : Version 4 / Version 2
File size : 17.9 GiB
Duration : 1 h 38 min
Overall bit rate mode : Variable
Overall bit rate : 26.1 Mb/s
Movie name : Bomb City (2017)
Encoded date : UTC 2018-09-16 18:54:20
Writing application : mkvmerge v26.0.0 ('In The Game') 64-bit
Writing library : libebml v1.3.6 + libmatroska v1.4.9

Video
ID : 1
Format : AVC
Format/Info : Advanced Video Codec
Format profile : High@L4.1
Format settings, CABAC : Yes
Format settings, RefFrames : 4 frames
Format settings, GOP : M=1, N=12
Codec ID : V_MPEG4/ISO/AVC
Duration : 1 h 38 min
Bit rate mode : Variable
Bit rate : 18.9 Mb/s
Maximum bit rate : 38.0 Mb/s
Width : 1 920 pixels
Height : 1 080 pixels
Display aspect ratio : 16:9
Frame rate mode : Constant
Frame rate : 23.976 (24000/1001) FPS
Color space : YUV
Chroma subsampling : 4:2:0
Bit depth : 8 bits
Scan type : Progressive
Bits/(Pixel*Frame) : 0.381
Stream size : 13.0 GiB (73%)
Language : English
Default : No
Forced : No

Audio #1
ID : 2
Format : DTS
Format/Info : Digital Theater Systems
Format profile : MA / Core
Mode : 16
Format settings, Endianness : Big
Codec ID : A_DTS
Duration : 1 h 38 min
Bit rate mode : Variable / Constant
Bit rate : 3 568 kb/s / 1 509 kb/s
Channel(s) : 6 channels
Channel positions : Front: L C R, Side: L R, LFE
Sampling rate : 48.0 kHz
Frame rate : 93.750 FPS (512 SPF)
Bit depth : 24 bits
Compression mode : Lossless / Lossy
Stream size : 2.45 GiB (14%)
Title : AVO - М.Яроцкий (kyberpunk)
Language : Russian
Default : Yes
Forced : No

Audio #2
ID : 3
Format : DTS
Format/Info : Digital Theater Systems
Format profile : MA / Core
Mode : 16
Format settings, Endianness : Big
Codec ID : A_DTS
Duration : 1 h 38 min
Bit rate mode : Variable / Constant
Bit rate : 3 514 kb/s / 1 509 kb/s
Channel(s) : 6 channels
Channel positions : Front: L C R, Side: L R, LFE
Sampling rate : 48.0 kHz
Frame rate : 93.750 FPS (512 SPF)
Bit depth : 24 bits
Compression mode : Lossless / Lossy
Stream size : 2.42 GiB (13%)
Title : Original
Language : English
Default : No
Forced : No

Text #1
ID : 4
Format : UTF-8
Codec ID : S_TEXT/UTF8
Codec ID/Info : UTF-8 Plain Text
Duration : 1 h 37 min
Bit rate : 5 b/s
Count of elements : 109
Stream size : 3.91 KiB (0%)
Title : Песни
Language : Russian
Default : Yes
Forced : No

Text #2
ID : 5
Format : PGS
Muxing mode : zlib
Codec ID : S_HDMV/PGS
Codec ID/Info : Picture based subtitle format used on BDs/HD-DVDs
Duration : 1 h 38 min
Bit rate : 95.7 kb/s
Count of elements : 3484
Stream size : 67.2 MiB (0%)
Title : English
Language : English
Default : No
Forced : No

Menu
00:00:00.000 : en:Chapter 01
00:10:02.184 : en:Chapter 02
00:19:27.124 : en:Chapter 03
00:31:26.092 : en:Chapter 04
00:45:07.788 : en:Chapter 05
00:56:29.094 : en:Chapter 06
01:06:48.838 : en:Chapter 07
01:16:41.597 : en:Chapter 08
01:26:24.387 : en:Chapter 09

Скриншоты

ЦитатаКто-то писал:
Перевод Михаила Яроцкого доступен благодаря: iVov4ik, mestereo2110, iNstIGGAtor, marshall cogburn, Mednik, stimco, petrena, СэМ, naromdvd, vupen, miklob. Работа со звуком Переводман
 

Вложения

  • 90,7 KB Просмотры: 1
    Личеров 0
    Сидеров 0
    Файлов 1
    Объем 17,9 GB

Привет!

Мы группа людей которые решили помочь другим в решении их проблем, а так же пользователям с поиском самых свежих и качественных инфопродуктов. За 4 с небольшим месяца мы создали этот форум на который заходят ежедневно тысячи человек и посещаемость постоянно растёт. Мы создали панель лицензирования для защиты PHP скриптов от воровства и SEO панель для мониторинга наших сайтов и выбора верной стратегии их развития. Мы надеемся что то что мы создали пригодится Вам и возможно Вы поможете нам развиваться и совершенствоваться вместе с Вами.

Статистика форума

Темы
406.544
Сообщения
464.663
Пользователи
83.273
Новый пользователь
avh

Приложения форума для iOS и Android


У ркн там нет власти ;)
Приватные разговоры
Помощь Пользователи
    Вы не присоединились ни к одной комнате.