За последнюю неделю опубликовано 40 новых материалов.
Инструкция новичку Путеводитель по форуму Прокси для Telegram Показать подсказки , это бомба!

Скачать Горячие новости (2009) HDRip-AVC от ExKinoRay бесплатно через торрент

  • Поучаствуй (в качестве покупателя) в любых пяти совместных покупках (кроме завершённых и "Моментальных") и получи группу "Новичок" навсегда -> ссылка на раздел
  • Получай до 480 рублей за каждого приглашенного пользователя!
    представляем Вам очередное расширение партнерской программы, подробности описаны тут -> ссылка
  • 90% материалов доступно к скачиванию после простой регистрации!
    Если же ты хочешь скачивать материалы без требования оставлять отзывы то получи группу "Новичок", 10 способов повышения описаны тут -> ссылка
  • К сожалению количество битых ссылок растет и мы уже не можем их оперативно восстанавливать поэтому просим помощи у каждого нашего пользователя.
    С сегодняшнего дня, за каждую восстановленную ссылку мы заплатим Вам.
    Подробнее тут -> ссылка
  • Перенесем твои заслуги с другого ресурса!
    Мы понимаем как сложно прокачивать аккаунты на форумах, вроде раскачал аккаунт, а тут появляется ресурс в 100 раз круче но тоже с системой прокачки и снова качать аккаунт...
    Предлагаем вам перенести Ваши заслуги на другом подобном ресурсе к нам.
    Подробности описаны тут -> ссылка
  • Вы можете получать по 2.5% с каждой покупки и продажи на маркете! Подробности в теме Партнёрская программа
Если Вы не хотите скачивать, Вы всегда можетепосмотретьонлайн, просто нажмите кнопку ниже :

Открыть плеер

Torrent_Bot

Торрент-Бот
Бот форума
4 Окт 2016
90
168
20


Информация о фильме
Название: Горячие новости
Год выхода: 2009
Жанр: Боевик, триллер, драма, криминал
Режиссер: Андерс Банке
В ролях: Андрей Мерзликин, Евгений Цыганов, Мария Машкова, Сергей Гармаш, Максим Коновалов, Алексей Франдетти, Павел Климов, Сергей Веснин, Артём Семакин, Виктор Чепелов, Давид Степанян, Пётр Рытов, Юрий Шлыков, Павел Сухов, Владимир Лёд, Григорий Баранов, Иван Суханов, Софья Хилькова

О фильме:
Группа оперативников проводит сложную операцию по обезвреживанию террористов, но в определенный момент все идет не так. Хуже всего то, что провал офицеров полиции попадает в сеть и сильно снижает их авторитет в глазах населения. Чтобы сгладить этот кризис, собирают экстренное совещание и обращаются за советом к молодой и амбициозной пиарщице Кате Вержбицкой. Она предлагает создать реалити-шоу о том, как оперативники будут ловить ушедшую от справедливого возмездия банду. Затея начинается хорошо, но в определенный момент террористы тоже объявляют полиции информационную войну.



Страна: Россия, Швеция
Студия: Кинокомпания "Тандем Пикчерз"(Россия), компания Illuzion Film(Швеция)
Продолжительность: 01:46:41
Язык: Русский

Файл
Формат: MKV
Качество: HDRip-AVC
Видео: MPEG-4 AVC, 800x340, - 900 Кбит/с
Аудио: AAC-HE, 2 ch, - 76 Кбит/с
Субтитры: Русские, английские

MI
Общее
Уникальный идентификатор : 294386853741504628362613121356676288607 (0xDD78D87ED7D05D9330AA352CB0CD505F)
Полное имя : D:MOVIESGoryachie.Novosti.2009.ExKinoRay.mkv
Формат : Matroska
Версия формата : Version 4 / Version 2
Размер файла : 746 Мбайт
Продолжительность : 1 ч. 46 м.
Общий поток : 978 Кбит/сек
Дата кодирования : UTC 2019-06-30 04:28:22
Программа кодирования : mkvmerge v32.0.0 ('Astral Progressions') 64-bit
Библиотека кодирования : libebml v1.3.7 + libmatroska v1.5.0

Видео
Идентификатор : 1
Формат : AVC
Формат/Информация : Advanced Video Codec
Профиль формата : [email protected]
Параметр CABAC формата : Да
Параметр RefFrames формата : 12 кадров
Идентификатор кодека : V_MPEG4/ISO/AVC
Продолжительность : 1 ч. 46 м.
Битрейт : 900 Кбит/сек
Ширина : 800 пикселей
Высота : 340 пикселей
Соотношение сторон : 2,35:1
Режим частоты кадров : Постоянный
Частота кадров : 23,976 (24000/1001) кадра/сек
Цветовое пространство : YUV
Субдискретизация насыщенности : 4:2:0
Битовая глубина : 8 бит
Тип развёртки : Прогрессивная
Бит/(Пиксели*Кадры) : 0.138
Размер потока : 687 Мбайт (92%)
Библиотека кодирования : x264 core 152 r2851kMod ba24899
Настройки программы : cabac=1 / ref=12 / deblock=1:-3:-3 / analyse=0x3:0x133 / me=umh / subme=10 / psy=1 / fade_compensate=0.00 / psy_rd=1.00:0.14 / mixed_ref=1 / me_range=32 / chroma_me=1 / trellis=2 / 8x8dct=1 / cqm=0 / deadzone=21,11 / fast_pskip=0 / chroma_qp_offset=-3 / threads=6 / lookahead_threads=1 / sliced_threads=0 / nr=0 / decimate=0 / interlaced=0 / bluray_compat=0 / constrained_intra=0 / bframes=12 / b_pyramid=2 / b_adapt=2 / b_bias=0 / direct=3 / weightb=1 / open_gop=0 / weightp=2 / keyint=240 / keyint_min=23 / scenecut=40 / intra_refresh=0 / rc_lookahead=40 / rc=2pass / mbtree=1 / bitrate=900 / ratetol=1.0 / qcomp=0.60 / qpmin=0 / qpmax=69 / qpstep=4 / cplxblur=20.0 / qblur=0.5 / ip_ratio=1.40 / aq=3:1.00
Default : Да
Forced : Нет

Аудио
Идентификатор : 2
Формат : AAC
Формат/Информация : Advanced Audio Codec
Профиль формата : HE-AAC / LC
Идентификатор кодека : A_AAC
Продолжительность : 1 ч. 46 м.
Битрейт : 76,0 Кбит/сек
Каналы : 2 канала
Расположение каналов : Front: L R
Частота : 48,0 КГц / 24,0 КГц
Частота кадров : 23,438 кадра/сек (1024 SPF)
Метод сжатия : С потерями
Задержка видео : 31 мс.
Размер потока : 58,0 Мбайт (8%)
Язык : Russian
Default : Да
Forced : Нет

Текст #1
Идентификатор : 3
Формат : UTF-8
Идентификатор кодека : S_TEXT/UTF8
Идентификатор кодека/Информация : UTF-8 Plain Text
Продолжительность : 1 ч. 43 м.
Битрейт : 101 бит/сек
ElementCount : 850
Размер потока : 77,0 Кбайт (0%)
Заголовок : Rus-Full (From DVD)
Язык : Russian
Default : Нет
Forced : Нет

Текст #2
Идентификатор : 4
Формат : UTF-8
Идентификатор кодека : S_TEXT/UTF8
Идентификатор кодека/Информация : UTF-8 Plain Text
Продолжительность : 1 ч. 43 м.
Битрейт : 55 бит/сек
ElementCount : 1020
Размер потока : 42,3 Кбайт (0%)
Заголовок : Eng-Full (From Blu-ray)
Язык : English
Default : Нет
Forced : Нет

Меню
00:00:00.000 : en:00:00:00.000
00:05:18.485 : en:00:05:18.485
00:12:10.730 : en:00:12:10.730
00:16:45.004 : en:00:16:45.004
00:23:34.121 : en:00:23:34.121
00:26:50.317 : en:00:26:50.317
00:32:09.177 : en:00:32:09.177
00:35:23.621 : en:00:35:23.621
00:41:57.306 : en:00:41:57.306
00:46:49.265 : en:00:46:49.265
00:50:39.912 : en:00:50:39.912
00:55:29.826 : en:00:55:29.826
01:01:55.462 : en:01:01:55.462
01:07:53.069 : en:01:07:53.069
01:12:24.799 : en:01:12:24.799
01:16:35.382 : en:01:16:35.382
01:20:54.641 : en:01:20:54.641
01:26:26.973 : en:01:26:26.973
01:28:13.538 : en:01:28:13.538
01:30:54.866 : en:01:30:54.866
01:34:54.606 : en:01:34:54.606
01:42:08.122 : en:01:42:08.122
01:43:33.707 : en:01:43:33.707
Скриншоты

 

Вложения

  • 15,6 KB Просмотры: 1
    Личеров 0
    Сидеров 0
    Файлов 1
    Объем 746,3 MB

Привет!

Мы группа людей которые решили помочь другим в решении их проблем, а так же пользователям с поиском самых свежих и качественных инфопродуктов. За 4 с небольшим месяца мы создали этот форум на который заходят ежедневно тысячи человек и посещаемость постоянно растёт. Мы создали панель лицензирования для защиты PHP скриптов от воровства и SEO панель для мониторинга наших сайтов и выбора верной стратегии их развития. Мы надеемся что то что мы создали пригодится Вам и возможно Вы поможете нам развиваться и совершенствоваться вместе с Вами.

Статистика форума

Темы
410.968
Сообщения
469.425
Пользователи
88.508
Новый пользователь
bimbimbom

Приложения форума для iOS и Android


У ркн там нет власти ;)
Приватные разговоры
Помощь Пользователи
    Вы не присоединились ни к одной комнате.