За последнюю неделю опубликовано 48 новых материалов.
Инструкция новичку Путеводитель по форуму Прокси для Telegram Показать подсказки , это бомба!

Скачать Гора девственности / Fúsi (2015) BDRip 720p от ExKinoRay | P бесплатно через торрент

  • Поучаствуй (в качестве покупателя) в любых пяти совместных покупках (кроме завершённых и "Моментальных") и получи группу "Новичок" навсегда -> ссылка на раздел
  • Получай до 480 рублей за каждого приглашенного пользователя!
    представляем Вам очередное расширение партнерской программы, подробности описаны тут -> ссылка
  • 90% материалов доступно к скачиванию после простой регистрации!
    Если же ты хочешь скачивать материалы без требования оставлять отзывы то получи группу "Новичок", 10 способов повышения описаны тут -> ссылка
  • К сожалению количество битых ссылок растет и мы уже не можем их оперативно восстанавливать поэтому просим помощи у каждого нашего пользователя.
    С сегодняшнего дня, за каждую восстановленную ссылку мы заплатим Вам.
    Подробнее тут -> ссылка
  • Перенесем твои заслуги с другого ресурса!
    Мы понимаем как сложно прокачивать аккаунты на форумах, вроде раскачал аккаунт, а тут появляется ресурс в 100 раз круче но тоже с системой прокачки и снова качать аккаунт...
    Предлагаем вам перенести Ваши заслуги на другом подобном ресурсе к нам.
    Подробности описаны тут -> ссылка
  • Вы можете получать по 2.5% с каждой покупки и продажи на маркете! Подробности в теме Партнёрская программа
Если Вы не хотите скачивать, Вы всегда можетепосмотретьонлайн, просто нажмите кнопку ниже :

Открыть плеер

Torrent_Bot

Торрент-Бот
Бот форума
4 Окт 2016
93
160
20



Название: Гора девственности / Фуси
Оригинальное название: Fúsi / Virgin Mountain
Год выхода: 2015
Жанр: драма
Режиссер: Дагюр Каури
В ролях: Гуннар Йонссон, Ильмюр Кристьяунсдоуттир, Сигюрйоун Кьяртанссон, Маргрет Хельга Йоханнсдоттир, Франциска Уна Дагсдоттир, Аднар Йоунссон, Торир Семундссон, Торстейнн Гуннарссон, Фридрик Фридрикссон, Вальтер Гримссон

О фильме: 43-летний толстяк живет в одной квартире с матерью и ее бойфрендом. Ничего не нарушает монотонности его будней. Работа, где он часто является объектом насмешек коллег и дом, в котором единственная отрада, это игра в солдатиков. Неизвестно сколь долго это могло бы продолжаться, если бы не появление маленькой соседки и подарок в виде абонемента на танцевальные занятия...




Страна: Исландия, Дания
Студия: Blueeyes Productions, Nimbus Film ApS, RVK Studios
Продолжительность: 01:35:29
Перевод: Профессиональный (многоголосый, закадровый) | HDRezka Studio

БЕЗ КАКОЙ-ЛИБО РЕКЛАМЫ!

Формат: MKV
Качество: BDRip 720p
Источник: Fusi.2015.720p.BDRip.x264.DD.SRT-d0ber
Видео: MPEG-4 AVC, 1280x536 (2.40:1), 24.000 fps, ~ 7518 kbps avg, 0.457 bit/pixel
Аудио 1: 48 kHz, AC3, 5.1, 448 Kbps | HDRezka Studio | RUS |
Аудио 2: 48 kHz, AC3, 5.1, 640 Kbps | original | ICE |
Субтитры: Русские (Станислав Бельков, porcellus), английские, исландские




ОтчетМедиаИнфо
General
Unique ID : 232450984620097828905727205932388476391 (0xAEE06E6259CEEFE9B9FA5F0DFD9665E7)
Complete name : F:Fusi.2015.MVO.BDRip.720.ExKinoRay.mkv
Format : Matroska
Format version : Version 2
File size : 5.86 GiB
Duration : 1 h 35 min
Overall bit rate : 8 780 kb/s
Movie name : Fúsi (2015) from ExKinoRay
Encoded date : UTC 2020-07-13 01:20:35
Writing application : mkvmerge v5.6.0 ('Kenya Kane') built on May 27 2012 16:44:04
Writing library : libebml v1.2.3 + libmatroska v1.3.0

Video
ID : 1
Format : AVC
Format/Info : Advanced Video Codec
Format profile : [email protected]
Format settings, CABAC : Yes
Format settings, ReFrames : 12 frames
Codec ID : V_MPEG4/ISO/AVC
Duration : 1 h 35 min
Bit rate : 7 518 kb/s
Width : 1 280 pixels
Height : 536 pixels
Display aspect ratio : 2.40:1
Frame rate mode : Constant
Frame rate : 24.000 FPS
Color space : YUV
Chroma subsampling : 4:2:0
Bit depth : 8 bits
Scan type : Progressive
Bits/(Pixel*Frame) : 0.457
Stream size : 5.02 GiB (86%)
Writing library : x264 core 150 r2833 df79067
Encoding settings : cabac=1 / ref=12 / deblock=1:-3:-3 / analyse=0x3:0x113 / me=tesa / subme=11 / psy=1 / psy_rd=1.00:0.00 / mixed_ref=1 / me_range=64 / chroma_me=1 / trellis=2 / 8x8dct=1 / cqm=0 / deadzone=21,11 / fast_pskip=0 / chroma_qp_offset=-2 / threads=6 / lookahead_threads=1 / sliced_threads=0 / nr=0 / decimate=0 / interlaced=0 / bluray_compat=0 / constrained_intra=0 / bframes=16 / b_pyramid=2 / b_adapt=2 / b_bias=0 / direct=3 / weightb=1 / open_gop=0 / weightp=2 / keyint=240 / keyint_min=24 / scenecut=40 / intra_refresh=0 / rc_lookahead=240 / rc=crf / mbtree=0 / crf=16.0 / qcomp=0.60 / qpmin=0 / qpmax=69 / qpstep=4 / vbv_maxrate=62500 / vbv_bufsize=78125 / crf_max=0.0 / nal_hrd=none / filler=0 / ip_ratio=1.30 / pb_ratio=1.20 / aq=1:0.70
Language : Icelandic
Default : Yes
Forced : No

Audio #1
ID : 2
Format : AC-3
Format/Info : Audio Coding 3
Mode extension : CM (complete main)
Format settings, Endianness : Big
Codec ID : A_AC3
Duration : 1 h 35 min
Bit rate mode : Constant
Bit rate : 448 kb/s
Channel(s) : 6 channels
Channel positions : Front: L C R, Side: L R, LFE
Sampling rate : 48.0 kHz
Frame rate : 31.250 FPS (1536 spf)
Compression mode : Lossy
Stream size : 306 MiB (5%)
Title : MVO [HDRezka Studio]
Language : Russian
Default : Yes
Forced : No

Audio #2
ID : 3
Format : AC-3
Format/Info : Audio Coding 3
Mode extension : CM (complete main)
Format settings, Endianness : Big
Codec ID : A_AC3
Duration : 1 h 35 min
Bit rate mode : Constant
Bit rate : 640 kb/s
Channel(s) : 6 channels
Channel positions : Front: L C R, Side: L R, LFE
Sampling rate : 48.0 kHz
Frame rate : 31.250 FPS (1536 spf)
Compression mode : Lossy
Stream size : 437 MiB (7%)
Title : ICE DD 5.1, 48 kHz, 640 kbps
Language : Icelandic
Default : No
Forced : No

Text #1
ID : 4
Format : UTF-8
Codec ID : S_TEXT/UTF8
Codec ID/Info : UTF-8 Plain Text
Title : RUS С.Бельков SRT
Language : Russian
Default : No
Forced : No

Text #2
ID : 5
Format : UTF-8
Codec ID : S_TEXT/UTF8
Codec ID/Info : UTF-8 Plain Text
Title : RUS porcellus SRT
Language : Russian
Default : No
Forced : No

Text #3
ID : 6
Format : UTF-8
Codec ID : S_TEXT/UTF8
Codec ID/Info : UTF-8 Plain Text
Title : ENG SRT
Language : English
Default : No
Forced : No

Text #4
ID : 7
Format : UTF-8
Codec ID : S_TEXT/UTF8
Codec ID/Info : UTF-8 Plain Text
Title : ICE SRT
Language : Icelandic
Default : No
Forced : No

Menu
00:00:00.000 : is:00:00:00.000
00:09:13.000 : is:00:09:13.000
00:14:32.292 : is:00:14:32.292
00:21:12.250 : is:00:21:12.250
00:29:57.417 : is:00:29:57.417
00:36:18.750 : is:00:36:18.750
00:44:26.417 : is:00:44:26.417
00:51:03.625 : is:00:51:03.625
00:57:54.458 : is:00:57:54.458
01:06:35.333 : is:01:06:35.333
01:12:46.375 : is:01:12:46.375
01:21:10.667 : is:01:21:10.667
01:30:28.042 : is:01:30:28.042

Релиз от:

Автор релиза:
 

Вложения

  • 30,3 KB Просмотры: 0
    Личеров 0
    Сидеров 0
    Файлов 1
    Объем 5,9 GB

Привет!

Мы группа людей которые решили помочь другим в решении их проблем, а так же пользователям с поиском самых свежих и качественных инфопродуктов. За 4 с небольшим месяца мы создали этот форум на который заходят ежедневно тысячи человек и посещаемость постоянно растёт. Мы создали панель лицензирования для защиты PHP скриптов от воровства и SEO панель для мониторинга наших сайтов и выбора верной стратегии их развития. Мы надеемся что то что мы создали пригодится Вам и возможно Вы поможете нам развиваться и совершенствоваться вместе с Вами.

Статистика форума

Темы
406.640
Сообщения
465.124
Пользователи
84.582
Новый пользователь
mladshiy

Приложения форума для iOS и Android


У ркн там нет власти ;)
Приватные разговоры
Помощь Пользователи
    Вы не присоединились ни к одной комнате.