За последнюю неделю опубликовано 57 новых материалов.
Инструкция новичку Путеводитель по форуму Прокси для Telegram Показать подсказки , это бомба!

Скачать Голова в облаках / Head in the Clouds (2004) WEB-DL 1080p | D | Open Matte бесплатно через торрент

  • Поучаствуй (в качестве покупателя) в любых пяти совместных покупках (кроме завершённых и "Моментальных") и получи группу "Новичок" навсегда -> ссылка на раздел
  • Получай до 480 рублей за каждого приглашенного пользователя!
    представляем Вам очередное расширение партнерской программы, подробности описаны тут -> ссылка
  • 90% материалов доступно к скачиванию после простой регистрации!
    Если же ты хочешь скачивать материалы без требования оставлять отзывы то получи группу "Новичок", 10 способов повышения описаны тут -> ссылка
  • К сожалению количество битых ссылок растет и мы уже не можем их оперативно восстанавливать поэтому просим помощи у каждого нашего пользователя.
    С сегодняшнего дня, за каждую восстановленную ссылку мы заплатим Вам.
    Подробнее тут -> ссылка
  • Перенесем твои заслуги с другого ресурса!
    Мы понимаем как сложно прокачивать аккаунты на форумах, вроде раскачал аккаунт, а тут появляется ресурс в 100 раз круче но тоже с системой прокачки и снова качать аккаунт...
    Предлагаем вам перенести Ваши заслуги на другом подобном ресурсе к нам.
    Подробности описаны тут -> ссылка
  • Вы можете получать по 2.5% с каждой покупки и продажи на маркете! Подробности в теме Партнёрская программа
Если Вы не хотите скачивать, Вы всегда можетепосмотретьонлайн, просто нажмите кнопку ниже :

Открыть плеер

Torrent_Bot

Торрент-Бот
Бот форума
4 Окт 2016
92
163
20



Название: Голова в облаках
Оригинальное название: Head in the Clouds
Год выхода: 2004
Жанр: драма, мелодрама, военный
Режиссер: Джон Дайган
В ролях: Шарлиз Терон, Пенелопа Крус, Стюарт Таунсенд, Томас Кречманн, Стивен Беркофф, Давид Ла Эй, Карин Ванасс, Гэбриел Хоган, Питер Коккет, Элизабет Шувалидзе

О фильме:
Впервые ирландский парень Гай увидел Гильду Бессе в весьма эксцентрической ситуации, когда учился в университете. Потом они расстались, потом вновь встретились… И судьба не единожды сводила — разводила Гая и Гильду — как в разгульные 1930-е, так и в тревожные предвоенные, и в трагические военные годы. Богатая и избалованная Гильда вела достаточно свободный образ жизни, благодаря чему Гай познакомился со многими людьми ее круга. Однажды он увидел рядом с Гильдой испанку Мию…



Страна: Великобритания, Канада
Выпущено: Remstar Productions, Sony Pictures Classics, Movision, Dakota Films, Spice Factory, Tusk Productions
Продолжительность: 02:01:16
Перевод: Дублированный

Формат: MKV
Качество: WEB-DL 1080p
Видео: AVC/H.264, 1920x1080, 23.976 fps, ~13.8 Mbps
Аудио 1: AC3, 6 ch, 448 Kbps - Русский (DUB)
Аудио 2: E-AC3, 6 ch, 640 Kbps - Английский
Субтитры: русские, английские

MediaInfo
General
Unique ID : 217417246485627243137475796605553414407 (0xA39109DDF915BF19863AB3CD2CBD1107)
Complete name : D:Head in the Clouds (2004) Open Matte 1080p.mkv
Format : Matroska
Format version : Version 4
File size : 12.7 GiB
Duration : 2 h 1 min
Overall bit rate : 14.9 Mb/s
Encoded date : UTC 2020-05-13 16:11:33
Writing application : mkvmerge v8.3.0 ('Over the Horizon') 32bit
Writing library : libebml v1.3.1 + libmatroska v1.4.2

Video
ID : 1
Format : AVC
Format/Info : Advanced Video Codec
Format profile : [email protected]
Format settings : CABAC / 4 Ref Frames
Format settings, CABAC : Yes
Format settings, Reference : 4 frames
Codec ID : V_MPEG4/ISO/AVC
Duration : 2 h 1 min
Bit rate : 13.8 Mb/s
Width : 1 920 pixels
Height : 1 080 pixels
Display aspect ratio : 16:9
Frame rate mode : Constant
Frame rate : 23.976 (24000/1001) FPS
Color space : YUV
Chroma subsampling : 4:2:0
Bit depth : 8 bits
Scan type : Progressive
Bits/(Pixel*Frame) : 0.279
Stream size : 11.7 GiB (93%)
Default : Yes
Forced : No
Color range : Limited
Color primaries : BT.709
Transfer characteristics : BT.709
Matrix coefficients : BT.709

Audio #1
ID : 2
Format : AC-3
Format/Info : Audio Coding 3
Commercial name : Dolby Digital
Codec ID : A_AC3
Duration : 2 h 1 min
Bit rate mode : Constant
Bit rate : 448 kb/s
Channel(s) : 6 channels
Channel layout : L R C LFE Ls Rs
Sampling rate : 48.0 kHz
Frame rate : 31.250 FPS (1536 SPF)
Bit depth : 16 bits
Compression mode : Lossy
Stream size : 388 MiB (3%)
Language : Russian
Service kind : Complete Main
Default : Yes
Forced : No

Audio #2
ID : 3
Format : E-AC-3
Format/Info : Enhanced AC-3
Commercial name : Dolby Digital Plus
Codec ID : A_EAC3
Duration : 2 h 1 min
Bit rate mode : Constant
Bit rate : 640 kb/s
Channel(s) : 6 channels
Channel layout : L R C LFE Ls Rs
Sampling rate : 48.0 kHz
Frame rate : 31.250 FPS (1536 SPF)
Compression mode : Lossy
Stream size : 555 MiB (4%)
Language : English
Service kind : Complete Main
Default : No
Forced : No

Text #1
ID : 4
Format : UTF-8
Codec ID : S_TEXT/UTF8
Codec ID/Info : UTF-8 Plain Text
Duration : 1 h 54 min
Bit rate : 76 b/s
Count of elements : 1084
Stream size : 64.5 KiB (0%)
Language : Russian
Default : No
Forced : No

Text #2
ID : 5
Format : UTF-8
Codec ID : S_TEXT/UTF8
Codec ID/Info : UTF-8 Plain Text
Duration : 1 h 58 min
Bit rate : 46 b/s
Count of elements : 1441
Stream size : 40.5 KiB (0%)
Title : SDH
Language : English
Default : No
Forced : No
Примечание & Сравнения:
Open Matte-версия фильма имеет большее наполнение кадра.
Местами есть английский хардсаб.



Скриншоты
 

Вложения

  • 32,6 KB Просмотры: 0
    Личеров 0
    Сидеров 0
    Файлов 1
    Объем 12,7 GB

Привет!

Мы группа людей которые решили помочь другим в решении их проблем, а так же пользователям с поиском самых свежих и качественных инфопродуктов. За 4 с небольшим месяца мы создали этот форум на который заходят ежедневно тысячи человек и посещаемость постоянно растёт. Мы создали панель лицензирования для защиты PHP скриптов от воровства и SEO панель для мониторинга наших сайтов и выбора верной стратегии их развития. Мы надеемся что то что мы создали пригодится Вам и возможно Вы поможете нам развиваться и совершенствоваться вместе с Вами.

Статистика форума

Темы
406.698
Сообщения
465.162
Пользователи
84.787
Новый пользователь
Freckle

Приложения форума для iOS и Android


У ркн там нет власти ;)
Приватные разговоры
Помощь Пользователи
    Вы не присоединились ни к одной комнате.