За последнюю неделю опубликовано 57 новых материалов.
Инструкция новичку Путеводитель по форуму Прокси для Telegram Показать подсказки , это бомба!

Скачать Голоса с того света / Morto Não Fala / The Nightshifter (2018) BDRip 1080p | iTunes бесплатно через торрент

  • Поучаствуй (в качестве покупателя) в любых пяти совместных покупках (кроме завершённых и "Моментальных") и получи группу "Новичок" навсегда -> ссылка на раздел
  • Получай до 480 рублей за каждого приглашенного пользователя!
    представляем Вам очередное расширение партнерской программы, подробности описаны тут -> ссылка
  • 90% материалов доступно к скачиванию после простой регистрации!
    Если же ты хочешь скачивать материалы без требования оставлять отзывы то получи группу "Новичок", 10 способов повышения описаны тут -> ссылка
  • К сожалению количество битых ссылок растет и мы уже не можем их оперативно восстанавливать поэтому просим помощи у каждого нашего пользователя.
    С сегодняшнего дня, за каждую восстановленную ссылку мы заплатим Вам.
    Подробнее тут -> ссылка
  • Перенесем твои заслуги с другого ресурса!
    Мы понимаем как сложно прокачивать аккаунты на форумах, вроде раскачал аккаунт, а тут появляется ресурс в 100 раз круче но тоже с системой прокачки и снова качать аккаунт...
    Предлагаем вам перенести Ваши заслуги на другом подобном ресурсе к нам.
    Подробности описаны тут -> ссылка
  • Вы можете получать по 2.5% с каждой покупки и продажи на маркете! Подробности в теме Партнёрская программа
Если Вы не хотите скачивать, Вы всегда можетепосмотретьонлайн, просто нажмите кнопку ниже :

Открыть плеер

Torrent_Bot

Торрент-Бот
Бот форума
4 Окт 2016
92
163
20


Информация о фильме
Название: Голоса с того света
Оригинальное название: Morto Não Fala / The Nightshifter
Год выхода: 2018
Жанр: Ужасы, триллер, мистика
Режиссер: Деннисон Рамалью
В ролях: Даниэль де Оливейра, Фабиула Нассименту, Бьянка Компрату, Маркос Клигман, Анналара Пратес, Марку Рикка

О фильме:
Стенио работает по ночам в морге большого криминального города, поэтому постоянно видит тела жертв бандитских разборок в самых разных невообразимых состояниях. Другой бы на его месте отчаялся, но только не Стенио - мёртвые разговаривают с ним. В прямом смысле. У мужчины оккультный дар с рождения, который он может использовать в своих интересах - мертвецы доверяют ему свои секреты. Однажды от очередного трупа Стенио узнаёт, что жена изменяет ему с соседом.




Страна: Бразилия
Студия: Canal Brasil, Casa de Cinema de Porto Alegre, Globo Filmes
Продолжительность: 01:50:32
Перевод: Дублированный | iTunes

Файл
Кодек: x.264
Качество: BDRip 1080p
Видео: MPEG-4 AVC, 11.3 Mбит/с, 1920x804, 23.976 кадр/с
Аудио #1: Русский ( АС3, 6ch, 384 Кбит/с, 48.0 KHz) Профессиональный (полное дублирование) iTunes
Аудио #2: Португальский (АС3, 6 ch, 640 Кбит/с, 48.0 KHz)
Аудио #3: Английский (АС3, 2 ch, 192 Кбит/с, 48.0 KHz) Dub
Субтитры: английские, испанские, французские
Трейлер
MediaInfo
Источник: Morto.Nao.Fala.AKA.The.Nightshifter.2018.1080p.BluRay.x264-HANDJOB
General
Unique ID : 186395418026389545418908700516734369752 (0x8C3A73A317F28F9B96818BB42C127FD8)
Complete name : The.Nightshifter.2018.BDRip.1080p.mkv
Format : Matroska
Format version : Version 4
File size : 9.70 GiB
Duration : 1 h 50 min
Overall bit rate : 12.6 Mb/s
Movie name : HJ
Encoded date : UTC 2020-07-21 20:39:26
Writing application : mkvmerge v7.1.0 ('Good Love') 64bit built on Jul 27 2014 13:06:55
Writing library : libebml v1.3.0 + libmatroska v1.4.1

Video
ID : 1
Format : AVC
Format/Info : Advanced Video Codec
Format profile : [email protected]
Format settings : CABAC / 5 Ref Frames
Format settings, CABAC : Yes
Format settings, Reference fra : 5 frames
Codec ID : V_MPEG4/ISO/AVC
Duration : 1 h 50 min
Bit rate : 11.3 Mb/s
Width : 1 920 pixels
Height : 804 pixels
Display aspect ratio : 2.40:1
Frame rate mode : Constant
Frame rate : 23.976 (24000/1001) FPS
Color space : YUV
Chroma subsampling : 4:2:0
Bit depth : 8 bits
Scan type : Progressive
Bits/(Pixel*Frame) : 0.306
Stream size : 8.76 GiB (90%)
Writing library : x264 core 157 r2935 545de2f
Encoding settings : cabac=1 / ref=5 / deblock=1:-3:-3 / analyse=0x3:0x133 / me=umh / subme=10 / psy=1 / psy_rd=1.00:0.00 / mixed_ref=1 / me_range=32 / chroma_me=1 / trellis=2 / 8x8dct=1 / cqm=0 / deadzone=21,11 / fast_pskip=0 / chroma_qp_offset=-2 / threads=18 / lookahead_threads=4 / sliced_threads=0 / nr=0 / decimate=0 / interlaced=0 / bluray_compat=0 / constrained_intra=0 / bframes=16 / b_pyramid=2 / b_adapt=2 / b_bias=0 / direct=3 / weightb=1 / open_gop=0 / weightp=2 / keyint=240 / keyint_min=24 / scenecut=40 / intra_refresh=0 / rc_lookahead=60 / rc=crf / mbtree=0 / crf=14.5 / qcomp=0.60 / qpmin=0 / qpmax=69 / qpstep=4 / vbv_maxrate=62500 / vbv_bufsize=78125 / crf_max=0.0 / nal_hrd=none / filler=0 / ip_ratio=1.40 / pb_ratio=1.30 / aq=2:1.00
Language : English
Default : Yes
Forced : No
Color range : Limited
Color primaries : BT.709
Transfer characteristics : BT.709
Matrix coefficients : BT.709

Audio #1
ID : 2
Format : AC-3
Format/Info : Audio Coding 3
Commercial name : Dolby Digital
Codec ID : A_AC3
Duration : 1 h 50 min
Bit rate mode : Constant
Bit rate : 384 kb/s
Channel(s) : 6 channels
Channel layout : L R C LFE Ls Rs
Sampling rate : 48.0 kHz
Frame rate : 31.250 FPS (1536 SPF)
Compression mode : Lossy
Stream size : 304 MiB (3%)
Title : DUB | iTunes
Language : Russian
Service kind : Complete Main
Default : Yes
Forced : No

Audio #2
ID : 3
Format : AC-3
Format/Info : Audio Coding 3
Commercial name : Dolby Digital
Codec ID : A_AC3
Duration : 1 h 50 min
Bit rate mode : Constant
Bit rate : 640 kb/s
Channel(s) : 6 channels
Channel layout : L R C LFE Ls Rs
Sampling rate : 48.0 kHz
Frame rate : 31.250 FPS (1536 SPF)
Compression mode : Lossy
Stream size : 506 MiB (5%)
Language : Portuguese
Service kind : Complete Main
Default : No
Forced : No

Audio #3
ID : 4
Format : AC-3
Format/Info : Audio Coding 3
Commercial name : Dolby Digital
Codec ID : A_AC3
Duration : 1 h 50 min
Bit rate mode : Constant
Bit rate : 192 kb/s
Channel(s) : 2 channels
Channel layout : L R
Sampling rate : 48.0 kHz
Frame rate : 31.250 FPS (1536 SPF)
Compression mode : Lossy
Stream size : 152 MiB (2%)
Title : English Dub
Language : English
Service kind : Complete Main
Default : No
Forced : No

Text #1
ID : 5
Format : UTF-8
Codec ID : S_TEXT/UTF8
Codec ID/Info : UTF-8 Plain Text
Duration : 1 h 43 min
Bit rate : 37 b/s
Count of elements : 1001
Stream size : 28.7 KiB (0%)
Language : English
Default : No
Forced : No

Text #2
ID : 6
Format : UTF-8
Codec ID : S_TEXT/UTF8
Codec ID/Info : UTF-8 Plain Text
Duration : 1 h 43 min
Bit rate : 51 b/s
Count of elements : 1147
Stream size : 39.2 KiB (0%)
Title : SDH
Language : English
Default : No
Forced : No

Text #3
ID : 7
Format : UTF-8
Codec ID : S_TEXT/UTF8
Codec ID/Info : UTF-8 Plain Text
Duration : 1 h 44 min
Bit rate : 41 b/s
Count of elements : 973
Stream size : 31.9 KiB (0%)
Language : French
Default : No
Forced : No

Text #4
ID : 8
Format : UTF-8
Codec ID : S_TEXT/UTF8
Codec ID/Info : UTF-8 Plain Text
Duration : 1 h 44 min
Bit rate : 43 b/s
Count of elements : 1048
Stream size : 33.3 KiB (0%)
Title : SDH
Language : French
Default : No
Forced : No

Text #5
ID : 9
Format : PGS
Muxing mode : zlib
Codec ID : S_HDMV/PGS
Codec ID/Info : Picture based subtitle format used on BDs/HD-DVDs
Duration : 1 h 44 min
Bit rate : 8 474 b/s
Count of elements : 1944
Stream size : 6.31 MiB (0%)
Language : Spanish
Default : No
Forced : No

Menu
00:00:00.000 : :Chapter 1
00:09:36.576 : :Chapter 2
00:19:31.504 : :Chapter 3
00:31:33.850 : :Chapter 4
00:38:47.992 : :Chapter 5
00:52:45.788 : :Chapter 6
01:01:53.210 : :Chapter 7
01:11:11.642 : :Chapter 8
01:18:25.993 : :Chapter 9
01:27:43.008 : :Chapter 10
01:32:57.906 : :Chapter 11
01:44:06.323 : :Chapter 12
01:45:35.329 : :Chapter 13
Скриншоты
 

Вложения

  • 25,2 KB Просмотры: 0
    Личеров 0
    Сидеров 0
    Файлов 1
    Объем 9,7 GB

Привет!

Мы группа людей которые решили помочь другим в решении их проблем, а так же пользователям с поиском самых свежих и качественных инфопродуктов. За 4 с небольшим месяца мы создали этот форум на который заходят ежедневно тысячи человек и посещаемость постоянно растёт. Мы создали панель лицензирования для защиты PHP скриптов от воровства и SEO панель для мониторинга наших сайтов и выбора верной стратегии их развития. Мы надеемся что то что мы создали пригодится Вам и возможно Вы поможете нам развиваться и совершенствоваться вместе с Вами.

Статистика форума

Темы
406.698
Сообщения
465.162
Пользователи
84.793
Новый пользователь
vt7x2fyxlzwd

Приложения форума для iOS и Android


У ркн там нет власти ;)
Приватные разговоры
Помощь Пользователи
    Вы не присоединились ни к одной комнате.