За последнюю неделю опубликовано 213 новых материалов.
Инструкция новичку Путеводитель по форуму Прокси для Telegram Показать подсказки , это бомба!

Скачать Гоголь. Страшная месть (2018) HDRip-AVC от OlLanDGroup | Лицензия бесплатно через торрент

  • Поучаствуй (в качестве покупателя) в любых пяти совместных покупках (кроме завершённых и "Моментальных") и получи группу "Новичок" навсегда -> ссылка на раздел
  • Получай до 480 рублей за каждого приглашенного пользователя!
    представляем Вам очередное расширение партнерской программы, подробности описаны тут -> ссылка
  • 90% материалов доступно к скачиванию после простой регистрации!
    Если же ты хочешь скачивать материалы без требования оставлять отзывы то получи группу "Новичок", 10 способов повышения описаны тут -> ссылка
  • К сожалению количество битых ссылок растет и мы уже не можем их оперативно восстанавливать поэтому просим помощи у каждого нашего пользователя.
    С сегодняшнего дня, за каждую восстановленную ссылку мы заплатим Вам.
    Подробнее тут -> ссылка
  • Перенесем твои заслуги с другого ресурса!
    Мы понимаем как сложно прокачивать аккаунты на форумах, вроде раскачал аккаунт, а тут появляется ресурс в 100 раз круче но тоже с системой прокачки и снова качать аккаунт...
    Предлагаем вам перенести Ваши заслуги на другом подобном ресурсе к нам.
    Подробности описаны тут -> ссылка
  • Вы можете получать по 2.5% с каждой покупки и продажи на маркете! Подробности в теме Партнёрская программа
Если Вы не хотите скачивать, Вы всегда можетепосмотретьонлайн, просто нажмите кнопку ниже :

Открыть плеер

Torrent_Bot

Торрент-Бот
Бот форума
4 Окт 2016
125
79
20


Информация о фильме
Название: Гоголь. Страшная месть
Год выхода: 2018
Жанр: Детектив, приключения, триллер
Режиссер: Егор Баранов
В ролях: Александр Петров, Олег Меньшиков, Евгений Стычкин, Артем Сучков, Таисия Вилкова, Юлия Франц, Ян Цапник, Евгений Сытый, Сергей Бадюк, Артем Ткаченко и др.

О фильме: Две сотни лет назад малороссийские хутора разоряла шайка нехристей-ляхов во главе с могущественным колдуном. С тех пор рыщет в окрестностях Диканьки неизвестный Чёрный Всадник, ловит молодых девушек и жестоко расправляется с ними, будто мстит за что. И следующей его жертвой может стать Лиза. Чтобы спасти возлюбленную, писарь Николай Гоголь должен разбить злые чары и победить древнее проклятье. Ни одному из смертных ещё не удавалось это, но к счастью, на помощь Гоголю приходит гениальный столичный сыщик Яков Гуро, и у него уже есть главный подозреваемый…



Страна: Егор Баранов
Студия: Продюсерская компания «Среда»
Продолжительность: 01:46:41
Перевод: Не требуется | BD RUS

Файл
Кодек: MPEG-4 AVC
Качество: HDRip-AVC
Видео: 720x302 (2.40:1), 24 fps, x264 ~905 kbps avg, 0.173 bit/pixel
Звук: 48 kHz, HE-AAC, 2 ch, ~72.00 kbps avg
Субтитры: Русские (полные), английские (полные)
MediaInfo:
General
Unique ID : 189787885068453358362605933368438123924 (0x8EC7D12D0A92DD18F4008BF8FB776D94)
Complete name : D:Мои рипыGogolStrashnayaMest.HDRip(AVC).OlLanDGroup.mkv
Format : Matroska
Format version : Version 4
File size : 745 MiB
Duration : 1 h 46 min
Overall bit rate : 976 kb/s
Movie name : #OlLanDGroup#
Encoded date : UTC 2019-03-11 13:48:02
Writing application : mkvmerge v31.0.0 ('Dolores In A Shoestand') 64-bit
Writing library : libebml v1.3.6 + libmatroska v1.4.9

Video
ID : 1
Format : AVC
Format/Info : Advanced Video Codec
Format profile : High@L4.1
Format settings : CABAC / 10 Ref Frames
Format settings, CABAC : Yes
Format settings, ReFrames : 10 frames
Codec ID : V_MPEG4/ISO/AVC
Duration : 1 h 46 min
Bit rate : 905 kb/s
Width : 720 pixels
Height : 302 pixels
Display aspect ratio : 2.40:1
Frame rate mode : Constant
Frame rate : 24.000 FPS
Color space : YUV
Chroma subsampling : 4:2:0
Bit depth : 8 bits
Scan type : Progressive
Bits/(Pixel*Frame) : 0.173
Stream size : 688 MiB (92%)
Writing library : x264 core 146 r2538 121396c
Encoding settings : cabac=1 / ref=10 / deblock=1:-2:-3 / analyse=0x3:0x133 / me=umh / subme=10 / psy=1 / psy_rd=0.95:0.07 / mixed_ref=1 / me_range=32 / chroma_me=1 / trellis=2 / 8x8dct=1 / cqm=0 / deadzone=21,11 / fast_pskip=0 / chroma_qp_offset=-3 / threads=6 / lookahead_threads=1 / sliced_threads=0 / nr=0 / decimate=0 / interlaced=0 / bluray_compat=0 / constrained_intra=0 / bframes=11 / b_pyramid=2 / b_adapt=2 / b_bias=0 / direct=3 / weightb=1 / open_gop=0 / weightp=2 / keyint=240 / keyint_min=24 / scenecut=40 / intra_refresh=0 / rc_lookahead=40 / rc=2pass / mbtree=0 / bitrate=905 / ratetol=1.0 / qcomp=0.60 / qpmin=0 / qpmax=69 / qpstep=4 / cplxblur=20.0 / qblur=0.5 / vbv_maxrate=50000 / vbv_bufsize=62500 / nal_hrd=none / filler=0 / ip_ratio=1.40 / pb_ratio=1.30 / aq=1:1.00
Default : Yes
Forced : No

Audio
ID : 2
Format : AAC LC SBR
Format/Info : Advanced Audio Codec Low Complexity with Spectral Band Replication
Commercial name : HE-AAC
Format settings : Explicit
Codec ID : A_AAC-2
Duration : 1 h 46 min
Bit rate : 72.0 kb/s
Channel(s) : 2 channels
Channel layout : L R
Sampling rate : 48.0 kHz
Frame rate : 23.438 FPS (2048 SPF)
Compression mode : Lossy
Delay relative to video : 31 ms
Stream size : 54.9 MiB (7%)
Title : Originall [Blu-ray RUS]
Default : Yes
Forced : No

Text #1
ID : 3
Format : UTF-8
Codec ID : S_TEXT/UTF8
Codec ID/Info : UTF-8 Plain Text
Duration : 1 h 41 min
Bit rate : 78 b/s
Count of elements : 1176
Stream size : 58.9 KiB (0%)
Title : Full
Language : Russian
Default : No
Forced : No

Text #2
ID : 4
Format : UTF-8
Codec ID : S_TEXT/UTF8
Codec ID/Info : UTF-8 Plain Text
Duration : 1 h 41 min
Bit rate : 49 b/s
Count of elements : 1176
Stream size : 37.2 KiB (0%)
Title : Full
Language : English
Default : No
Forced : No

Menu
00:00:00.000 : :Chapter 1
00:02:05.916 : :Chapter 2
00:12:12.250 : :Chapter 3
00:25:21.166 : :Chapter 4
00:40:19.916 : :Chapter 5
00:52:32.625 : :Chapter 6
01:07:14.041 : :Chapter 7
01:17:52.791 : :Chapter 8
01:31:43.625 : :Chapter 9
Семпл
Скриншоты

Релиз:
 

Вложения

  • 16,4 KB Просмотры: 0
    Личеров 0
    Сидеров 0
    Файлов 1
    Объем 744,7 MB
Ваш e-mail не будет опубликован. Он потребуется для подтверждения Вашего поста.
Оформление текста Нажмите «Ввод», чтобы отправить ответ.

Привет!

Мы группа людей которые решили помочь другим в решении их проблем, а так же пользователям с поиском самых свежих и качественных инфопродуктов. За 4 с небольшим месяца мы создали этот форум на который заходят ежедневно тысячи человек и посещаемость постоянно растёт. Мы создали панель лицензирования для защиты PHP скриптов от воровства и SEO панель для мониторинга наших сайтов и выбора верной стратегии их развития. Мы надеемся что то что мы создали пригодится Вам и возможно Вы поможете нам развиваться и совершенствоваться вместе с Вами.

Статистика форума

Темы
372.584
Сообщения
409.059
Пользователи
42.599
Новый пользователь
ramzik101

Приложения форума для iOS и Android


У ркн там нет власти ;)
Гостевая
Помощь Пользователи
  • Никто не разговаривает в данный момент.
  • mizaider Chat Bot:
    mizaider присоединился(лась) к комнате.
  • T Chat Bot:
    Гость tttrrt присоединился к комнате.
  • T (Гость) tttrrt:
    Чокаво
    Цитата
  • Н Chat Bot:
    Гость не могу зарегиться присоединился к комнате.
  • Н (Гость) не могу зарегиться:
    при регистрации ошибка
    Цитата
  • Skladomen Chat Bot:
    Skladomen присоединился(лась) к комнате.
  • Н Chat Bot:
    Гость не дает регистрироваться присоединился к комнате.
  • R Chat Bot:
    Гость regresspro присоединился к комнате.
  • R (Гость) regresspro:
    Здравия почему то не удается пройти регистраци
    Цитата
  • mizaider @ mizaider:
    Какая ошибка?
    Цитата
  • C Chat Bot:
    Гость che присоединился к комнате.
  • C (Гость) che:
    Цитата
  • mizaider @ mizaider:
    Подробнее
    Цитата
    mizaider @ mizaider: Подробнее