За последнюю неделю опубликовано 62 новых материалов.
Инструкция новичку Путеводитель по форуму Прокси для Telegram Показать подсказки , это бомба!

Скачать Год спокойного солнца / Rok spokojnego slonca (1984) BDRip-AVC от msltel | P, P2 бесплатно через торрент

  • Поучаствуй (в качестве покупателя) в любых пяти совместных покупках (кроме завершённых и "Моментальных") и получи группу "Новичок" навсегда -> ссылка на раздел
  • Получай до 480 рублей за каждого приглашенного пользователя!
    представляем Вам очередное расширение партнерской программы, подробности описаны тут -> ссылка
  • 90% материалов доступно к скачиванию после простой регистрации!
    Если же ты хочешь скачивать материалы без требования оставлять отзывы то получи группу "Новичок", 10 способов повышения описаны тут -> ссылка
  • К сожалению количество битых ссылок растет и мы уже не можем их оперативно восстанавливать поэтому просим помощи у каждого нашего пользователя.
    С сегодняшнего дня, за каждую восстановленную ссылку мы заплатим Вам.
    Подробнее тут -> ссылка
  • Перенесем твои заслуги с другого ресурса!
    Мы понимаем как сложно прокачивать аккаунты на форумах, вроде раскачал аккаунт, а тут появляется ресурс в 100 раз круче но тоже с системой прокачки и снова качать аккаунт...
    Предлагаем вам перенести Ваши заслуги на другом подобном ресурсе к нам.
    Подробности описаны тут -> ссылка
  • Вы можете получать по 2.5% с каждой покупки и продажи на маркете! Подробности в теме Партнёрская программа
Если Вы не хотите скачивать, Вы всегда можетепосмотретьонлайн, просто нажмите кнопку ниже :

Открыть плеер

Torrent_Bot

Торрент-Бот
Бот форума
4 Окт 2016
92
160
20



Название: Год спокойного солнца
Оригинальное название: Rok spokojnego slonca
Год выпуска: 1984
Страна: Польша, Италия, Германия (ФРГ)
Жанр: драма, мелодрама, военный
Продолжительность: 01:45:47
Перевод: профессиональный многоголосый, профессиональный двухголосый
Режиссер: Кшиштоф Занусси
В ролях: Майя Коморовска, Скотт Уилсон, Ханна Скаржанка, Эва Далковска, Вадим Гловна, Дэниэл Уэбб, Збигнев Запасевич, Тадеуш Брадецкий, Ежи Новак, Ежи Штур, Халина Слоницка, Веслав Михниковский, Халина Лабонарска, Зофия Рысювна, Густав Люткевич, Дарья Трафанковска, Януш Гайос, Павел Унруг

О фильме: Действие разворачивается после окончания Второй мировой войны в Польше. Эмилия живёт вместе с больной матерью. Она знакомится с американским офицером Норманом, приехавшим в Польшу расследовать преступления, совершённые в годы войны. Между Эмилией и Норманом завязываются отношения. Норман предлагает Эмилии и её матери покинуть страну. Это можно сделать только тайно, за деньги, имея знакомство с проводником поезда. Через Нормана это можно осуществить. Но Эмилия, как истинная католичка, решает пожертвовать собой и своим счастьем, потому что не может оставить мать, а также подругу, вынужденную заниматься проституцией. Больная мать тяготится тем, что из-за неё дочь не может уехать к любимому человеку в благополучный мир, и решает покончить с собой. Но Эмилия всё равно остаётся в Польше, и лишь в старости, в доме престарелых весточка от Нормана доходит до неё...



Качество: BDRip-AVC
Формат: MKV
Видео: MPEG-4 AVC, 2936 Кбит/c, 992x576, 25 Кадр/c
Аудио 1: русский, AC3, 192 kbps, 2 ch, 48 kHz [закадровый многоголосый, Видеоимпульс]
Аудио 2: русский, AC3, 192 kbps, 2 ch, 48 kHz [закадровый двухголосый, Фортуна-фильм]
Аудио 3: польский + английский, AC3, 384 kbps, 2 ch, 48 kHz [оригинал]
Субтитры 1: русские
Субтитры 2: польские (на английскую речь)
Субтитры 3: английские (на польскую речь)
Главы/чаптеры

MediaInfo
Общее
Уникальный идентификатор : 212060307943296154833635611142975542646 (0x9F895467C4FF64C8AAA6DF32A0FA5576)
Полное имя : D:VideoГод спокойного солнца.1984.BDRip-AVC msltel.mkv
Формат : Matroska
Версия формата : Version 4
Размер файла : 2,74 Гбайт
Продолжительность : 1 ч. 45 м.
Общий поток : 3 705 Кбит/сек
Название фильма : Rip msltel
Дата кодирования : UTC 2020-08-14 14:15:30
Программа кодирования : mkvmerge v8.2.0 ('World of Adventure') 64bit
Библиотека кодирования : libebml v1.3.1 + libmatroska v1.4.2

Видео
Идентификатор : 1
Формат : AVC
Формат/Информация : Advanced Video Codec
Профиль формата : [email protected]
Настройки формата : CABAC / 14 Ref Frames
Параметр CABAC формата : Да
Параметр RefFrames формата : 14 кадров
Идентификатор кодека : V_MPEG4/ISO/AVC
Продолжительность : 1 ч. 45 м.
Битрейт : 2 936 Кбит/сек
Ширина : 992 пикселя
Высота : 576 пикселей
Соотношение сторон : 1,722
Режим частоты кадров : Постоянный
Частота кадров : 25,000 кадров/сек
Цветовое пространство : YUV
Субдискретизация насыщенности : 4:2:0
Битовая глубина : 8 бит
Тип развёртки : Прогрессивная
Бит/(Пиксели*Кадры) : 0.206
Размер потока : 2,17 Гбайт (79%)
Заголовок : польский + английский
Библиотека кодирования : x264 core 159 r2991 1771b55
Настройки программы : cabac=1 / ref=14 / deblock=1:-2:-2 / analyse=0x3:0x113 / me=umh / subme=11 / psy=1 / psy_rd=1.00:0.15 / mixed_ref=1 / me_range=32 / chroma_me=1 / trellis=2 / 8x8dct=1 / cqm=0 / deadzone=21,11 / fast_pskip=0 / chroma_qp_offset=-3 / threads=6 / lookahead_threads=1 / sliced_threads=0 / nr=0 / decimate=1 / interlaced=0 / bluray_compat=0 / constrained_intra=0 / bframes=8 / b_pyramid=2 / b_adapt=2 / b_bias=0 / direct=1 / weightb=1 / open_gop=0 / weightp=2 / keyint=240 / keyint_min=24 / scenecut=40 / intra_refresh=0 / rc_lookahead=40 / rc=crf / mbtree=1 / crf=16.0 / qcomp=0.60 / qpmin=0 / qpmax=69 / qpstep=4 / vbv_maxrate=50000 / vbv_bufsize=62500 / crf_max=0.0 / nal_hrd=none / filler=0 / ip_ratio=1.40 / aq=1:1.00
Язык : Polish
Default : Да
Forced : Нет

Аудио #1
Идентификатор : 2
Формат : AC-3
Формат/Информация : Audio Coding 3
Коммерческое название : Dolby Digital
Идентификатор кодека : A_AC3
Продолжительность : 1 ч. 45 м.
Вид битрейта : Постоянный
Битрейт : 192 Кбит/сек
Каналы : 2 канала
Channel layout : L R
Частота : 48,0 КГц
Частота кадров : 31,250 кадров/сек (1536 SPF)
Метод сжатия : С потерями
Размер потока : 145 Мбайт (5%)
Заголовок : MVO Видеоимпульс
Язык : Russian
Service kind : Complete Main
Default : Да
Forced : Нет

Аудио #2
Идентификатор : 3
Формат : AC-3
Формат/Информация : Audio Coding 3
Коммерческое название : Dolby Digital
Идентификатор кодека : A_AC3
Продолжительность : 1 ч. 45 м.
Вид битрейта : Постоянный
Битрейт : 192 Кбит/сек
Каналы : 2 канала
Channel layout : L R
Частота : 48,0 КГц
Частота кадров : 31,250 кадров/сек (1536 SPF)
Метод сжатия : С потерями
Размер потока : 145 Мбайт (5%)
Заголовок : DVO Фортуна-фильм
Язык : Russian
Service kind : Complete Main
Default : Нет
Forced : Нет

Аудио #3
Идентификатор : 4
Формат : AC-3
Формат/Информация : Audio Coding 3
Коммерческое название : Dolby Digital
Идентификатор кодека : A_AC3
Продолжительность : 1 ч. 45 м.
Вид битрейта : Постоянный
Битрейт : 384 Кбит/сек
Каналы : 2 канала
Channel layout : L R
Частота : 48,0 КГц
Частота кадров : 31,250 кадров/сек (1536 SPF)
Метод сжатия : С потерями
Размер потока : 291 Мбайт (10%)
Заголовок : польский + английский
Язык : Multiple languages
Service kind : Complete Main
Default : Нет
Forced : Нет

Текст #1
Идентификатор : 5
Формат : UTF-8
Идентификатор кодека : S_TEXT/UTF8
Идентификатор кодека/Информация : UTF-8 Plain Text
Продолжительность : 1 ч. 40 м.
Битрейт : 37 бит/сек
Count of elements : 644
Размер потока : 27,7 Кбайт (0%)
Заголовок : русские
Язык : Russian
Default : Нет
Forced : Нет

Текст #2
Идентификатор : 6
Формат : UTF-8
Идентификатор кодека : S_TEXT/UTF8
Идентификатор кодека/Информация : UTF-8 Plain Text
Продолжительность : 1 ч. 34 м.
Битрейт : 8 бит/сек
Count of elements : 226
Размер потока : 6,08 Кбайт (0%)
Заголовок : польские на английскую речь
Язык : Polish
Default : Нет
Forced : Нет

Текст #3
Идентификатор : 7
Формат : UTF-8
Идентификатор кодека : S_TEXT/UTF8
Идентификатор кодека/Информация : UTF-8 Plain Text
Продолжительность : 1 ч. 40 м.
Битрейт : 18 бит/сек
Count of elements : 489
Размер потока : 13,8 Кбайт (0%)
Заголовок : английские на польскую речь
Язык : English
Default : Нет
Forced : Нет

Меню
00:00:00.000 : en:Chapter 1
00:08:27.840 : en:Chapter 2
00:23:15.840 : en:Chapter 3
00:28:05.760 : en:Chapter 4
00:38:30.720 : en:Chapter 5
00:45:56.640 : en:Chapter 6
00:58:12.000 : en:Chapter 7
01:05:00.480 : en:Chapter 8
01:17:01.680 : en:Chapter 9
 

Вложения

  • 14,6 KB Просмотры: 0
    Личеров 0
    Сидеров 0
    Файлов 1
    Объем 2,7 GB

Привет!

Мы группа людей которые решили помочь другим в решении их проблем, а так же пользователям с поиском самых свежих и качественных инфопродуктов. За 4 с небольшим месяца мы создали этот форум на который заходят ежедневно тысячи человек и посещаемость постоянно растёт. Мы создали панель лицензирования для защиты PHP скриптов от воровства и SEO панель для мониторинга наших сайтов и выбора верной стратегии их развития. Мы надеемся что то что мы создали пригодится Вам и возможно Вы поможете нам развиваться и совершенствоваться вместе с Вами.

Статистика форума

Темы
406.657
Сообщения
465.113
Пользователи
84.665
Новый пользователь
koleg

Приложения форума для iOS и Android


У ркн там нет власти ;)
Приватные разговоры
Помощь Пользователи
    Вы не присоединились ни к одной комнате.