За последнюю неделю опубликовано 62 новых материалов.
Инструкция новичку Путеводитель по форуму Прокси для Telegram Показать подсказки , это бомба!

Скачать Глубокое синее море 3 / Deep Blue Sea 3 (2020) BDRemux 1080p | L бесплатно через торрент

  • Поучаствуй (в качестве покупателя) в любых пяти совместных покупках (кроме завершённых и "Моментальных") и получи группу "Новичок" навсегда -> ссылка на раздел
  • Получай до 480 рублей за каждого приглашенного пользователя!
    представляем Вам очередное расширение партнерской программы, подробности описаны тут -> ссылка
  • 90% материалов доступно к скачиванию после простой регистрации!
    Если же ты хочешь скачивать материалы без требования оставлять отзывы то получи группу "Новичок", 10 способов повышения описаны тут -> ссылка
  • К сожалению количество битых ссылок растет и мы уже не можем их оперативно восстанавливать поэтому просим помощи у каждого нашего пользователя.
    С сегодняшнего дня, за каждую восстановленную ссылку мы заплатим Вам.
    Подробнее тут -> ссылка
  • Перенесем твои заслуги с другого ресурса!
    Мы понимаем как сложно прокачивать аккаунты на форумах, вроде раскачал аккаунт, а тут появляется ресурс в 100 раз круче но тоже с системой прокачки и снова качать аккаунт...
    Предлагаем вам перенести Ваши заслуги на другом подобном ресурсе к нам.
    Подробности описаны тут -> ссылка
  • Вы можете получать по 2.5% с каждой покупки и продажи на маркете! Подробности в теме Партнёрская программа
Если Вы не хотите скачивать, Вы всегда можетепосмотретьонлайн, просто нажмите кнопку ниже :

Открыть плеер

Torrent_Bot

Торрент-Бот
Бот форума
4 Окт 2016
92
160
20



Информация о фильме
Название: Глубокое синее море 3
Оригинальное название: Deep Blue Sea 3
Год выхода: 2020
Жанр: Ужасы, фантастика, боевик
Режиссер: Джон Пог
В ролях: Таня Рэймонд, Натаниэль Бузолич, Эмерсон Брукс, Брен Фостер, Рэина Аой, Алекс Бхат, Эрнест Ст. Клэр, Сия Майола, Девилль Ванник

О фильме:
Эмма Коллинз – морской биолог, изучающая жизнь белых акул. Она искренне восхищается этими хищниками и пытается понять, не грозит ли глобальное потепление вымиранию этого вида. Героиня возглавляет исследовательскую группу, расположившую свою лабораторию на маленьком острове. Однажды к ним прибывает Ричард Лоуэлл со своими людьми. Они давно выслеживают опасных бычьих акул, которые недавно были замечены в данной местности. Хищники уже успели оставить после себя кровавый след, и Ричард просит Эмму помочь найти их как можно быстрее.



Страна: США
Студия: Roserock Films
Продолжительность: 01:40:10
Перевод: Любительский многоголосый | @[email protected]

Файл
Кодек: h.264
Качество: BDRemux 1080p
Видео: MPEG4/AVC, 1920х1080, ~15.1 Mb/s, 23.976 FPS
Аудио #1: AC3, 2 ch, 256 kb/s - русский (MVO)
Аудио #2: DTS-HD MA, 6 ch, 4262 kb/s - английский (оригинал)
Субтитры: Английские
MI:
General
Unique ID : 83053293918013186643005786760161155499 (0x3E7B7B89F2B0CBAAF494B0DEA53A59AB)
Complete name : F:Новая папка (27)Deep.Blue.Sea.3.2020.BDREMUX 1080p.mkv
Format : Matroska
Format version : Version 4
File size : 13.7 GiB
Duration : 1 h 40 min
Overall bit rate mode : Variable
Overall bit rate : 19.6 Mb/s
Movie name : Deep.Blue.Sea.3.2020.BDREMUX 1080p
Encoded date : UTC 2020-08-10 16:28:24
Writing application : mkvmerge v29.0.0 ('Like It Or Not') 64-bit
Writing library : libebml v1.3.6 + libmatroska v1.4.9
Cover : Yes
Attachments : cover_land.jpg / small_cover.jpg / small_cover_land.jpg / cover.jpg / Deep-Blue-Sea-3.jpg

Video
ID : 1
Format : AVC
Format/Info : Advanced Video Codec
Format profile : [email protected]
Format settings : CABAC / 4 Ref Frames
Format settings, CABAC : Yes
Format settings, RefFrames : 4 frames
Format settings, GOP : M=3, N=12
Codec ID : V_MPEG4/ISO/AVC
Duration : 1 h 40 min
Bit rate mode : Variable
Bit rate : 15.1 Mb/s
Maximum bit rate : 38.0 Mb/s
Width : 1 920 pixels
Height : 1 080 pixels
Display aspect ratio : 16:9
Frame rate mode : Constant
Frame rate : 23.976 (24000/1001) FPS
Color space : YUV
Chroma subsampling : 4:2:0
Bit depth : 8 bits
Scan type : Progressive
Bits/(Pixel*Frame) : 0.303
Stream size : 10.5 GiB (77%)
Title : Deep.Blue.Sea.3.2020.BDREMUX 1080p
Language : English
Default : No
Forced : No

Audio #1
ID : 2
Format : AC-3
Format/Info : Audio Coding 3
Commercial name : Dolby Digital
Codec ID : A_AC3
Duration : 1 h 40 min
Bit rate mode : Constant
Bit rate : 256 kb/s
Channel(s) : 2 channels
Channel layout : L R
Sampling rate : 48.0 kHz
Frame rate : 31.250 FPS (1536 SPF)
Bit depth : 16 bits
Compression mode : Lossy
Stream size : 183 MiB (1%)
Title : MVO [@[email protected]]
Language : Russian
Service kind : Complete Main
Default : Yes
Forced : No

Audio #2
ID : 3
Format : DTS XLL
Format/Info : Digital Theater Systems
Commercial name : DTS-HD Master Audio
Codec ID : A_DTS
Duration : 1 h 40 min
Bit rate mode : Variable
Bit rate : 4 262 kb/s
Channel(s) : 6 channels
Channel layout : C L R Ls Rs LFE
Sampling rate : 48.0 kHz
Frame rate : 93.750 FPS (512 SPF)
Bit depth : 24 bits
Compression mode : Lossless
Stream size : 2.98 GiB (22%)
Title : Original (Eng)
Language : English
Default : No
Forced : No

Text
ID : 4
Format : UTF-8
Codec ID : S_TEXT/UTF8
Codec ID/Info : UTF-8 Plain Text
Duration : 1 h 30 min
Bit rate : 48 b/s
Count of elements : 1054
Stream size : 32.1 KiB (0%)
Title : English-SRT
Language : English
Default : No
Forced : No

Menu
00:00:00.000 : en:Chapter 01
00:09:50.006 : en:Chapter 02
00:19:15.154 : en:Chapter 03
00:28:50.270 : en:Chapter 04
00:38:06.033 : en:Chapter 05
00:45:09.289 : en:Chapter 06
00:54:28.890 : en:Chapter 07
01:04:14.141 : en:Chapter 08
01:14:12.406 : en:Chapter 09
01:23:10.819 : en:Chapter 10
01:32:48.229 : en:Chapter 11
Скриншоты

 

Вложения

  • 138 KB Просмотры: 0
    Личеров 0
    Сидеров 0
    Файлов 1
    Объем 13,7 GB

Привет!

Мы группа людей которые решили помочь другим в решении их проблем, а так же пользователям с поиском самых свежих и качественных инфопродуктов. За 4 с небольшим месяца мы создали этот форум на который заходят ежедневно тысячи человек и посещаемость постоянно растёт. Мы создали панель лицензирования для защиты PHP скриптов от воровства и SEO панель для мониторинга наших сайтов и выбора верной стратегии их развития. Мы надеемся что то что мы создали пригодится Вам и возможно Вы поможете нам развиваться и совершенствоваться вместе с Вами.

Статистика форума

Темы
406.657
Сообщения
465.107
Пользователи
84.664
Новый пользователь
nastsiqq12

Приложения форума для iOS и Android


У ркн там нет власти ;)
Приватные разговоры
Помощь Пользователи
    Вы не присоединились ни к одной комнате.