За последнюю неделю опубликовано 52 новых материалов.
Инструкция новичку Путеводитель по форуму Прокси для Telegram Показать подсказки , это бомба!

Скачать Гимн подростка-провидца / Anthem of a Teenage Prophet (2018) WEBRip 720p | P бесплатно через торрент

  • Поучаствуй (в качестве покупателя) в любых пяти совместных покупках (кроме завершённых и "Моментальных") и получи группу "Новичок" навсегда -> ссылка на раздел
  • Получай до 480 рублей за каждого приглашенного пользователя!
    представляем Вам очередное расширение партнерской программы, подробности описаны тут -> ссылка
  • 90% материалов доступно к скачиванию после простой регистрации!
    Если же ты хочешь скачивать материалы без требования оставлять отзывы то получи группу "Новичок", 10 способов повышения описаны тут -> ссылка
  • К сожалению количество битых ссылок растет и мы уже не можем их оперативно восстанавливать поэтому просим помощи у каждого нашего пользователя.
    С сегодняшнего дня, за каждую восстановленную ссылку мы заплатим Вам.
    Подробнее тут -> ссылка
  • Перенесем твои заслуги с другого ресурса!
    Мы понимаем как сложно прокачивать аккаунты на форумах, вроде раскачал аккаунт, а тут появляется ресурс в 100 раз круче но тоже с системой прокачки и снова качать аккаунт...
    Предлагаем вам перенести Ваши заслуги на другом подобном ресурсе к нам.
    Подробности описаны тут -> ссылка
  • Вы можете получать по 2.5% с каждой покупки и продажи на маркете! Подробности в теме Партнёрская программа
Если Вы не хотите скачивать, Вы всегда можетепосмотретьонлайн, просто нажмите кнопку ниже :

Открыть плеер

Torrent_Bot

Торрент-Бот
Бот форума
4 Окт 2016
93
160
20



Информация о фильме
Название: Гимн подростка-провидца
Оригинальное название: Anthem of a Teenage Prophet
Год выхода: 2018
Жанр: Драма
Режиссер: Робин Хэйс
В ролях: Кэмерон Монахэн, Грейсон Габриэль, Пейтон Лист (II), Джульетт Льюис, Аарон Перл, Ричард де Клерк, Алекс МакНиколл, Алекс МакКенна, Патти Аллан, Бо Дэниелс

О фильме:
Фильм, основанный на одноименной книге, расскажет о подростке Люке Хантере, который обладает даром предвидения. Однако его способность становится проклятием после того, как парень предсказывает гибель своего лучшего друга Стэна, а местный репортер называет его «пророком смерти». Журналисты нарушают спокойствие Люка, отчаянно пытаясь выяснить подробности его жизни. Подросток держит всех на расстоянии — телевизионщиков, своих родителей и даже Фэйт, девушку Стэна, в которую он всегда был тайно влюблен. Обеспокоенному и сбитому с толку Люку предстоит выяснить, как пользоваться своими способностями, которые шлют ему новые предостережения...




Страна: Канада
Студия: Sepia Films, Hand Picked Films
Продолжительность: 01:42:15
Перевод: Профессиональный многоголосый | HDRezka Studio

Файл
Кодек: MPEG-4 AVC
Качество: WEBRip 720p
Видео: 1272x528 (2.40:1), 23,976 fps, ~2 609 kbps avg, 0.162 bit/pixel
Звук: 48 kHz, AC3 Dolby Digital, 3/2 (L,C,R,l,r) + LFE ch, ~448.00 kbps avg
Субтитры: нет




МедиаИнфо
General
Unique ID : 13743919749841123577227139081301837951 (0xA56FB8F9A313C48D3B80B632FDEC87F)
Complete name : G:ФільмиAnthem.of.a.Teenage.Prophet.2018.WEBRip.720p.rus.5.1.HDREZKA.STUDIO.mkv
Format : Matroska
Format version : Version 4
File size : 2.23 GiB
Duration : 1 h 42 min
Overall bit rate mode : Variable
Overall bit rate : 3 119 kb/s
Encoded date : UTC 2020-07-01 00:35:23
Writing application : mkvmerge v47.0.0 ('Black Flag') 64-bit
Writing library : libebml v1.3.10 + libmatroska v1.5.2

Video
ID : 1
Format : AVC
Format/Info : Advanced Video Codec
Format profile : [email protected]
Format settings : CABAC / 1 Ref Frames
Format settings, CABAC : Yes
Format settings, Reference frames : 1 frame
Codec ID : V_MPEG4/ISO/AVC
Duration : 1 h 42 min
Bit rate mode : Variable
Bit rate : 2 609 kb/s
Maximum bit rate : 2 000 kb/s
Width : 1 272 pixels
Height : 528 pixels
Display aspect ratio : 2.40:1
Frame rate mode : Constant
Frame rate : 23.976 (24000/1001) FPS
Color space : YUV
Chroma subsampling : 4:2:0
Bit depth : 8 bits
Scan type : Progressive
Bits/(Pixel*Frame) : 0.162
Stream size : 1.86 GiB (84%)
Default : Yes
Forced : No

Audio
ID : 2
Format : AC-3
Format/Info : Audio Coding 3
Commercial name : Dolby Digital
Codec ID : A_AC3
Duration : 1 h 42 min
Bit rate mode : Constant
Bit rate : 448 kb/s
Channel(s) : 6 channels
Channel layout : L R C LFE Ls Rs
Sampling rate : 48.0 kHz
Frame rate : 31.250 FPS (1536 SPF)
Compression mode : Lossy
Stream size : 328 MiB (14%)
Language : Russian
Service kind : Complete Main
Default : Yes
Forced : No
Скриншоты
 

Вложения

  • 6,5 KB Просмотры: 0
    Личеров 0
    Сидеров 0
    Файлов 1
    Объем 2,2 GB

Привет!

Мы группа людей которые решили помочь другим в решении их проблем, а так же пользователям с поиском самых свежих и качественных инфопродуктов. За 4 с небольшим месяца мы создали этот форум на который заходят ежедневно тысячи человек и посещаемость постоянно растёт. Мы создали панель лицензирования для защиты PHP скриптов от воровства и SEO панель для мониторинга наших сайтов и выбора верной стратегии их развития. Мы надеемся что то что мы создали пригодится Вам и возможно Вы поможете нам развиваться и совершенствоваться вместе с Вами.

Статистика форума

Темы
406.648
Сообщения
465.113
Пользователи
84.625
Новый пользователь
kris_kelt

Приложения форума для iOS и Android


У ркн там нет власти ;)
Приватные разговоры
Помощь Пользователи
    Вы не присоединились ни к одной комнате.