За последнюю неделю опубликовано 26 новых материалов.
Инструкция новичку Путеводитель по форуму Прокси для Telegram Показать подсказки , это бомба!

Скачать Герой / Hero / Ma Yong Zhen (1997) WEBRip 1080p | L1 бесплатно через торрент

  • Поучаствуй (в качестве покупателя) в любых пяти совместных покупках (кроме завершённых и "Моментальных") и получи группу "Новичок" навсегда -> ссылка на раздел
  • Получай до 480 рублей за каждого приглашенного пользователя!
    представляем Вам очередное расширение партнерской программы, подробности описаны тут -> ссылка
  • 90% материалов доступно к скачиванию после простой регистрации!
    Если же ты хочешь скачивать материалы без требования оставлять отзывы то получи группу "Новичок", 10 способов повышения описаны тут -> ссылка
  • К сожалению количество битых ссылок растет и мы уже не можем их оперативно восстанавливать поэтому просим помощи у каждого нашего пользователя.
    С сегодняшнего дня, за каждую восстановленную ссылку мы заплатим Вам.
    Подробнее тут -> ссылка
  • Перенесем твои заслуги с другого ресурса!
    Мы понимаем как сложно прокачивать аккаунты на форумах, вроде раскачал аккаунт, а тут появляется ресурс в 100 раз круче но тоже с системой прокачки и снова качать аккаунт...
    Предлагаем вам перенести Ваши заслуги на другом подобном ресурсе к нам.
    Подробности описаны тут -> ссылка
  • Вы можете получать по 2.5% с каждой покупки и продажи на маркете! Подробности в теме Партнёрская программа
Если Вы не хотите скачивать, Вы всегда можетепосмотретьонлайн, просто нажмите кнопку ниже :

Открыть плеер

Torrent_Bot

Торрент-Бот
Бот форума
4 Окт 2016
96
155
20
Информация о фильме
Название: Герой
Оригинальное название: Ma Yong Zhen / Hero
Год выхода: 1997
Жанр: Боевик, драма
Режиссер: Кори Юэнь
В ролях: акеши Канеширо, Бяо Юэнь, Валери Чоу, Джессика Хестер, Ва Юэнь, Кори Юэнь, Юэнь Так

О фильме:
Шанхай начала XX века находится во власти двух банд. Там Си, в прошлом один из Десяти Тигров Квантуна, пользуется поддержкой торговых гильдий. Юн Су часто работает под патронажем местной полиции. Два брата Ма Вин Цзин и Ма Тай Чун приезжают в город из глубокой провинции. Личная харизма, прекрасное знание кунфу и немного шального везения помогают Винжчину выбиться в люди. Он становится личным другом Там Си, а потом создает на улицах Шанхая свою собственную криминальную империю. Успех слишком сильно кружит парню голову. Вскоре он уже начинает забывать про старых друзей и теряет бдительность. Но враг не дремлет.



Страна: Гонконг
Студия: Shaw Brothers (Hong Kong) Ltd, China Film Co-Production Corporation, Inner Mongolian Film Production Institute
Продолжительность: 01:28:34
Перевод: Любительский одноголосый

Файл
Кодек: AVC
Качество: WEBRip 1080p
Видео: MPEG-4 AVC, 1920x1080, 5736 Kбит/с, 25.000 кадр/с
Аудио #1: Русский ( АС3, 2ch, 192 Кбит/с, 48.0 KHz) Любительский(одноголосый, закадровый)
Аудио #2: Китайский ( АС3, 2ch, 192 Кбит/с, 48.0 KHz)
Субтитры: английские, испанские, немецкие, португальские, индонезийские, японские, корейские, тайские, вьетнамские, китайские
MediaInfo
Источник: Hero.1997.1080p.NF.WEBRip.DD2.0.x264-AJP69
General
Unique ID : 249693517817239482978523288236831996600 (0xBBD938E7E3D87C3AA20E77B29BCAFAB8)
Complete name : Hero.1997.NF.WEBRip.1080p.mkv
Format : Matroska
Format version : Version 4 / Version 2
File size : 3.55 GiB
Duration : 1 h 28 min
Overall bit rate mode : Variable
Overall bit rate : 5 736 kb/s
Encoded date : UTC 2018-09-08 10:31:44
Writing application : mkvmerge v7.1.0 ('Good Love') 64bit built on Jul 27 2014 13:06:55
Writing library : libebml v1.3.0 + libmatroska v1.4.1

Video
ID : 1
Format : AVC
Format/Info : Advanced Video Codec
Format profile : [email protected]
Format settings : CABAC / 3 Ref Frames
Format settings, CABAC : Yes
Format settings, ReFrames : 3 frames
Codec ID : V_MPEG4/ISO/AVC
Duration : 1 h 28 min
Bit rate mode : Variable
Bit rate : 5 360 kb/s
Maximum bit rate : 8 040 kb/s
Width : 1 920 pixels
Height : 1 080 pixels
Display aspect ratio : 16:9
Frame rate mode : Constant
Frame rate : 25.000 FPS
Color space : YUV
Chroma subsampling : 4:2:0
Bit depth : 8 bits
Scan type : Progressive
Bits/(Pixel*Frame) : 0.103
Stream size : 3.31 GiB (93%)
Writing library : x264 core 148 r2715 7e75228
Encoding settings : cabac=1 / ref=3 / deblock=1:0:0 / analyse=0x1:0x111 / me=umh / subme=10 / psy=1 / psy_rd=1.00:0.00 / mixed_ref=1 / me_range=24 / chroma_me=1 / trellis=2 / 8x8dct=0 / cqm=0 / deadzone=21,11 / fast_pskip=1 / chroma_qp_offset=-2 / threads=8 / lookahead_threads=1 / sliced_threads=0 / nr=0 / decimate=1 / interlaced=0 / bluray_compat=0 / stitchable=1 / constrained_intra=0 / bframes=2 / b_pyramid=0 / b_adapt=2 / b_bias=0 / direct=3 / weightb=1 / open_gop=0 / weightp=2 / keyint=50 / keyint_min=26 / scenecut=0 / intra_refresh=0 / rc_lookahead=50 / rc=2pass / mbtree=1 / bitrate=5360 / ratetol=1.0 / qcomp=0.50 / qpmin=6 / qpmax=51 / qpstep=4 / cplxblur=20.0 / qblur=0.5 / vbv_maxrate=8040 / vbv_bufsize=10720 / nal_hrd=vbr / filler=0 / ip_ratio=1.40 / aq=1:1.00
Language : Chinese
Default : Yes
Forced : No

Audio #1
ID : 2
Format : AC-3
Format/Info : Audio Coding 3
Commercial name : Dolby Digital
Codec ID : A_AC3
Duration : 1 h 28 min
Bit rate mode : Constant
Bit rate : 192 kb/s
Channel(s) : 2 channels
Channel layout : L R
Sampling rate : 48.0 kHz
Frame rate : 31.250 FPS (1536 SPF)
Bit depth : 16 bits
Compression mode : Lossy
Stream size : 121 MiB (3%)
Title : AVO
Language : Russian
Service kind : Complete Main
Default : Yes
Forced : No

Audio #2
ID : 3
Format : AC-3
Format/Info : Audio Coding 3
Commercial name : Dolby Digital
Codec ID : A_AC3
Duration : 1 h 28 min
Bit rate mode : Constant
Bit rate : 192 kb/s
Channel(s) : 2 channels
Channel layout : L R
Sampling rate : 48.0 kHz
Frame rate : 31.250 FPS (1536 SPF)
Bit depth : 16 bits
Compression mode : Lossy
Stream size : 122 MiB (3%)
Title : Cantonese
Language : Chinese
Service kind : Complete Main
Default : No
Forced : No

Text #1
ID : 4
Format : UTF-8
Codec ID : S_TEXT/UTF8
Codec ID/Info : UTF-8 Plain Text
Duration : 1 h 24 min
Bit rate : 52 b/s
Count of elements : 1058
Stream size : 32.7 KiB (0%)
Language : English
Default : No
Forced : No

Text #2
ID : 5
Format : UTF-8
Codec ID : S_TEXT/UTF8
Codec ID/Info : UTF-8 Plain Text
Duration : 1 h 26 min
Bit rate : 50 b/s
Count of elements : 1054
Stream size : 32.3 KiB (0%)
Language : German
Default : No
Forced : No

Text #3
ID : 6
Format : UTF-8
Codec ID : S_TEXT/UTF8
Codec ID/Info : UTF-8 Plain Text
Duration : 1 h 26 min
Bit rate : 53 b/s
Count of elements : 1055
Stream size : 34.1 KiB (0%)
Language : Spanish
Default : No
Forced : No

Text #4
ID : 7
Format : UTF-8
Codec ID : S_TEXT/UTF8
Codec ID/Info : UTF-8 Plain Text
Duration : 1 h 26 min
Bit rate : 53 b/s
Count of elements : 1057
Stream size : 34.4 KiB (0%)
Language : Indonesian
Default : No
Forced : No

Text #5
ID : 8
Format : UTF-8
Codec ID : S_TEXT/UTF8
Codec ID/Info : UTF-8 Plain Text
Duration : 1 h 25 min
Bit rate : 43 b/s
Count of elements : 924
Stream size : 27.3 KiB (0%)
Language : Japanese
Default : No
Forced : No

Text #6
ID : 9
Format : UTF-8
Codec ID : S_TEXT/UTF8
Codec ID/Info : UTF-8 Plain Text
Duration : 1 h 25 min
Bit rate : 58 b/s
Count of elements : 1056
Stream size : 36.5 KiB (0%)
Language : Korean
Default : No
Forced : No

Text #7
ID : 10
Format : UTF-8
Codec ID : S_TEXT/UTF8
Codec ID/Info : UTF-8 Plain Text
Duration : 1 h 26 min
Bit rate : 52 b/s
Count of elements : 1053
Stream size : 33.6 KiB (0%)
Title : Brazilian
Language : Portuguese
Default : No
Forced : No

Text #8
ID : 11
Format : UTF-8
Codec ID : S_TEXT/UTF8
Codec ID/Info : UTF-8 Plain Text
Duration : 1 h 26 min
Bit rate : 120 b/s
Count of elements : 1056
Stream size : 76.6 KiB (0%)
Language : Thai
Default : No
Forced : No

Text #9
ID : 12
Format : UTF-8
Codec ID : S_TEXT/UTF8
Codec ID/Info : UTF-8 Plain Text
Duration : 1 h 26 min
Bit rate : 69 b/s
Count of elements : 1056
Stream size : 44.1 KiB (0%)
Language : Vietnamese
Default : No
Forced : No

Text #10
ID : 13
Format : UTF-8
Codec ID : S_TEXT/UTF8
Codec ID/Info : UTF-8 Plain Text
Duration : 1 h 27 min
Bit rate : 60 b/s
Count of elements : 1428
Stream size : 38.7 KiB (0%)
Title : Simplified SDH
Language : Chinese
Default : No
Forced : No

Text #11
ID : 14
Format : UTF-8
Codec ID : S_TEXT/UTF8
Codec ID/Info : UTF-8 Plain Text
Duration : 1 h 26 min
Bit rate : 64 b/s
Count of elements : 1530
Stream size : 41.1 KiB (0%)
Title : Traditional SDH
Language : Chinese
Default : No
Forced : No
Скриншоты
 

Вложения

  • 18,6 KB Просмотры: 1
    Личеров 0
    Сидеров 0
    Файлов 1
    Объем 3,5 GB

Привет!

Мы группа людей которые решили помочь другим в решении их проблем, а так же пользователям с поиском самых свежих и качественных инфопродуктов. За 4 с небольшим месяца мы создали этот форум на который заходят ежедневно тысячи человек и посещаемость постоянно растёт. Мы создали панель лицензирования для защиты PHP скриптов от воровства и SEO панель для мониторинга наших сайтов и выбора верной стратегии их развития. Мы надеемся что то что мы создали пригодится Вам и возможно Вы поможете нам развиваться и совершенствоваться вместе с Вами.

Статистика форума

Темы
406.519
Сообщения
464.555
Пользователи
82.839
Новый пользователь
Akropolis

Приложения форума для iOS и Android


У ркн там нет власти ;)
Приватные разговоры
Помощь Пользователи
    Вы не присоединились ни к одной комнате.