За последнюю неделю опубликовано 34 новых материалов.
Инструкция новичку Путеводитель по форуму Прокси для Telegram Показать подсказки , это бомба!

Скачать Геошторм / Geostorm (2017) WEB-DLRip-AVC от ExKinoRay | D | Open Matte бесплатно через торрент

  • Поучаствуй (в качестве покупателя) в любых пяти совместных покупках (кроме завершённых и "Моментальных") и получи группу "Новичок" навсегда -> ссылка на раздел
  • Получай до 480 рублей за каждого приглашенного пользователя!
    представляем Вам очередное расширение партнерской программы, подробности описаны тут -> ссылка
  • 90% материалов доступно к скачиванию после простой регистрации!
    Если же ты хочешь скачивать материалы без требования оставлять отзывы то получи группу "Новичок", 10 способов повышения описаны тут -> ссылка
  • К сожалению количество битых ссылок растет и мы уже не можем их оперативно восстанавливать поэтому просим помощи у каждого нашего пользователя.
    С сегодняшнего дня, за каждую восстановленную ссылку мы заплатим Вам.
    Подробнее тут -> ссылка
  • Перенесем твои заслуги с другого ресурса!
    Мы понимаем как сложно прокачивать аккаунты на форумах, вроде раскачал аккаунт, а тут появляется ресурс в 100 раз круче но тоже с системой прокачки и снова качать аккаунт...
    Предлагаем вам перенести Ваши заслуги на другом подобном ресурсе к нам.
    Подробности описаны тут -> ссылка
  • Вы можете получать по 2.5% с каждой покупки и продажи на маркете! Подробности в теме Партнёрская программа
Если Вы не хотите скачивать, Вы всегда можетепосмотретьонлайн, просто нажмите кнопку ниже :

Открыть плеер

Torrent_Bot

Торрент-Бот
Бот форума
4 Окт 2016
93
160
20



Информация о фильме
Название: Геошторм
Оригинальное название: Geostorm
Год выпуска: 2017
Жанр: Фантастика, боевик, триллер
Режиссер: Дин Девлин, Пол Гуйо
В ролях: Джерард Батлер, Эбби Корниш, Джим Стёрджесс, Энди Гарсиа, Эд Харрис, Дэниэл Ву, Роберт Шиэн, Александра Мария Лара, Талита Бейтман, Эухенио Дербес, Мэр Уиннингэм, Джереми Рэй Тейлор, Грегори Алан Уильямс, Рэндолл П. Хевенс, Амр Вакид, Дрю Пауэлл, Одеперо Одуйе, Джоди Лин Броктон, Дэвид С. Ли

О фильме:
После беспрецедентной серии стихийных бедствий, обрушившихся на нашу планету, лидеры мировых держав объединили усилия, чтобы создать разветвленную сеть орбитальных спутников, позволяющую контролировать климат Земли и обеспечивать безопасность ее жителей. Но что-то пошло не так – система, выстроенная для защиты планеты, теперь угрожает ей. Начинается гонка со временем, в которой надо успеть обнаружить реальную угрозу до того, как всемирный Геошторм сотрет с лица Земли все живое… и всех живых заодно.




Страна: США
Студия: Electric Entertainment, Skydance Media, Warner Bros.
Продолжительность: 01:49:14
Перевод: Профессиональный (полное дублирование)

Файл
Формат: MKV
Качество: WEB-DLRip-AVC
Видео: MPEG-4 AVC, 704x396, - 877 Кбит/с
Аудио: AAC-HE, 2 ch, - 76 Кбит/с
Субтитры: Русские (форс., полные), английские

MI
Общее
Уникальный идентификатор : 257902380714183313725543549323918547428 (0xC2063118243A4DF242A2B8B158E599E4)
Полное имя : D:MOVIESGeostorm.2017.O.M.WEB-DLRip-AVC.ExKinoRay.mkv
Формат : Matroska
Версия формата : Version 4
Размер файла : 746 Мбайт
Продолжительность : 1 ч. 49 м.
Общий поток : 954 Кбит/сек
Дата кодирования : UTC 2020-05-26 10:54:40
Программа кодирования : mkvmerge v45.0.0 ('Heaven in Pennies') 64-bit
Библиотека кодирования : libebml v1.3.10 + libmatroska v1.5.2

Видео
Идентификатор : 1
Формат : AVC
Формат/Информация : Advanced Video Codec
Профиль формата : [email protected]
Настройки формата : CABAC / 11 Ref Frames
Параметр CABAC формата : Да
Параметр RefFrames формата : 11 кадров
Идентификатор кодека : V_MPEG4/ISO/AVC
Продолжительность : 1 ч. 49 м.
Битрейт : 877 Кбит/сек
Ширина : 704 пикселя
Высота : 396 пикселей
Соотношение сторон : 16:9
Режим частоты кадров : Постоянный
Частота кадров : 23,976 (24000/1001) кадра/сек
Цветовое пространство : YUV
Субдискретизация насыщенности : 4:2:0
Битовая глубина : 8 бит
Тип развёртки : Прогрессивная
Бит/(Пиксели*Кадры) : 0.131
Размер потока : 685 Мбайт (92%)
Библиотека кодирования : x264 core 160 r3000 33f9e14
Настройки программы : cabac=1 / ref=11 / deblock=1:-3:-3 / analyse=0x3:0x133 / me=umh / subme=10 / psy=1 / psy_rd=1.05:0.14 / mixed_ref=1 / me_range=32 / chroma_me=1 / trellis=2 / 8x8dct=1 / cqm=0 / deadzone=21,11 / fast_pskip=0 / chroma_qp_offset=-3 / threads=6 / lookahead_threads=1 / sliced_threads=0 / nr=0 / decimate=0 / interlaced=0 / bluray_compat=0 / constrained_intra=0 / bframes=14 / b_pyramid=2 / b_adapt=2 / b_bias=0 / direct=3 / weightb=1 / open_gop=0 / weightp=2 / keyint=240 / keyint_min=23 / scenecut=40 / intra_refresh=0 / rc=2pass / mbtree=0 / bitrate=877 / ratetol=1.0 / qcomp=0.60 / qpmin=0 / qpmax=69 / qpstep=4 / cplxblur=20.0 / qblur=0.5 / ip_ratio=1.40 / pb_ratio=1.30 / aq=1:1.00
Default : Да
Forced : Нет
Цветовой диапазон : Limited
Основные цвета : BT.709
Характеристики трансфера : BT.709
Коэффициенты матрицы : BT.709

Аудио
Идентификатор : 2
Формат : AAC LC SBR
Формат/Информация : Advanced Audio Codec Low Complexity with Spectral Band Replication
Коммерческое название : HE-AAC
Настройки формата : Explicit
Идентификатор кодека : A_AAC-2
Продолжительность : 1 ч. 49 м.
Битрейт : 76,0 Кбит/сек
Каналы : 2 канала
Channel layout : L R
Частота : 48,0 КГц
Частота кадров : 23,438 кадра/сек (2048 SPF)
Метод сжатия : С потерями
Задержка видео : 31 мс.
Размер потока : 59,4 Мбайт (8%)
Язык : Russian
Default : Да
Forced : Нет

Текст #1
Идентификатор : 3
Формат : UTF-8
Идентификатор кодека : S_TEXT/UTF8
Идентификатор кодека/Информация : UTF-8 Plain Text
Продолжительность : 1 ч. 40 м.
Битрейт : 4 бит/сек
Count of elements : 68
Размер потока : 3,50 Кбайт (0%)
Заголовок : Надписи и пр.
Язык : Russian
Default : Да
Forced : Нет

Текст #2
Идентификатор : 4
Формат : UTF-8
Идентификатор кодека : S_TEXT/UTF8
Идентификатор кодека/Информация : UTF-8 Plain Text
Продолжительность : 1 ч. 42 м.
Битрейт : 111 бит/сек
Count of elements : 1235
Размер потока : 83,9 Кбайт (0%)
Заголовок : Полные
Язык : Russian
Default : Нет
Forced : Нет

Текст #3
Идентификатор : 5
Формат : UTF-8
Идентификатор кодека : S_TEXT/UTF8
Идентификатор кодека/Информация : UTF-8 Plain Text
Продолжительность : 1 ч. 40 м.
Битрейт : 69 бит/сек
Count of elements : 1464
Размер потока : 51,5 Кбайт (0%)
Заголовок : Полные
Язык : English
Default : Нет
Forced : Нет

Текст #4
Идентификатор : 6
Формат : UTF-8
Идентификатор кодека : S_TEXT/UTF8
Идентификатор кодека/Информация : UTF-8 Plain Text
Продолжительность : 1 ч. 40 м.
Битрейт : 74 бит/сек
Count of elements : 1877
Размер потока : 54,8 Кбайт (0%)
Заголовок : Полные, SDH, Amazon
Язык : English
Default : Нет
Forced : Нет
Скриншоты

 

Вложения

  • 15,7 KB Просмотры: 0
    Личеров 0
    Сидеров 0
    Файлов 1
    Объем 745,8 MB

Привет!

Мы группа людей которые решили помочь другим в решении их проблем, а так же пользователям с поиском самых свежих и качественных инфопродуктов. За 4 с небольшим месяца мы создали этот форум на который заходят ежедневно тысячи человек и посещаемость постоянно растёт. Мы создали панель лицензирования для защиты PHP скриптов от воровства и SEO панель для мониторинга наших сайтов и выбора верной стратегии их развития. Мы надеемся что то что мы создали пригодится Вам и возможно Вы поможете нам развиваться и совершенствоваться вместе с Вами.

Статистика форума

Темы
406.602
Сообщения
464.990
Пользователи
84.246
Новый пользователь
Jacksn

Приложения форума для iOS и Android


У ркн там нет власти ;)
Приватные разговоры
Помощь Пользователи
    Вы не присоединились ни к одной комнате.