За последнюю неделю опубликовано 46 новых материалов.
Инструкция новичку Путеводитель по форуму Прокси для Telegram Показать подсказки , это бомба!

Скачать Гавань / Haven (2004) WEB-DLRip 720p | D бесплатно через торрент

  • Поучаствуй (в качестве покупателя) в любых пяти совместных покупках (кроме завершённых и "Моментальных") и получи группу "Новичок" навсегда -> ссылка на раздел
  • Получай до 480 рублей за каждого приглашенного пользователя!
    представляем Вам очередное расширение партнерской программы, подробности описаны тут -> ссылка
  • 90% материалов доступно к скачиванию после простой регистрации!
    Если же ты хочешь скачивать материалы без требования оставлять отзывы то получи группу "Новичок", 10 способов повышения описаны тут -> ссылка
  • К сожалению количество битых ссылок растет и мы уже не можем их оперативно восстанавливать поэтому просим помощи у каждого нашего пользователя.
    С сегодняшнего дня, за каждую восстановленную ссылку мы заплатим Вам.
    Подробнее тут -> ссылка
  • Перенесем твои заслуги с другого ресурса!
    Мы понимаем как сложно прокачивать аккаунты на форумах, вроде раскачал аккаунт, а тут появляется ресурс в 100 раз круче но тоже с системой прокачки и снова качать аккаунт...
    Предлагаем вам перенести Ваши заслуги на другом подобном ресурсе к нам.
    Подробности описаны тут -> ссылка
  • Вы можете получать по 2.5% с каждой покупки и продажи на маркете! Подробности в теме Партнёрская программа
Если Вы не хотите скачивать, Вы всегда можетепосмотретьонлайн, просто нажмите кнопку ниже :

Открыть плеер

Torrent_Bot

Торрент-Бот
Бот форума
4 Окт 2016
91
163
20
Информация о фильме
Название: Гавань
Оригинальное название: Haven
Год выпуска: 2004
Жанр: драма, криминал
Режиссер: Фрэнк Э. Флауэрс
В ролях: Орландо Блум (Shy), Билл Пэкстон (Carl Ridley), Зои Салдана (Andrea), Энтони Маки (Hammer), Кэролайн Гудолл (Ms. Claire), Разаак Адоти (Richie Rich), Агнес Брукнер (Pippa Ridley), Джой Брайант (Sheila), Бобби Каннавале (Lieutenant), Стивен Диллэйн (Mr. Allen), Ли Инглби (Patrick), Виктор Расук (Fritz)

О фильме: Спокойному существованию жителей Каймановых островов пришел конец, когда там поселились богатые бизнесмены и их избалованные отпрыски, купающиеся в роскоши и привилегиях жизни без налогов.

Местное население не могло остаться равнодушным ко всему происходящему. А когда девушка из богатой семьи и симпатичный местный парень полюбили друг друга, началась настоящая война.



MPAA: R - Лицам до 17 лет обязательно присутствие взрослого

Страна: Великобритания, Германия, США, Испания
Студия: Bob Yari Productions, El Camino Pictures, Whatever Pictures
Продолжительность: 01:38:48
Перевод: Профессиональный (дублированный) Мосфильм-Мастер

Файл
Качество: WEB-DLRip 720p
Формат: Matroska
Видео: 1280x696 at 24.000 fps, x264, ~6000 kbps avg
Аудио#1: Russian: 48 kHz, AC3, 3/2 (L,C,R,l,r) + LFE ch, ~448 kbps avg |Дубляж, Мосфильм-Мастер|
Аудио#2: English: 48 kHz, EAC3, 2/0 (L,R) ch, ~224 kbps avg
Субтитры: Russian (Full), English (SDH)

***Сохранены оригинальные главы.
***Релиз: inet2663.

Знаете ли вы, что...
В начале ноября 2003 года Орландо Блум вошел в проект как исполнитель и сопродюсер. К тому времени Пэкстон уже был нанят на роль одного из двух мошенников, а на роль второго утвердили Гэбриеля Бирна. Однако последний отказался участвовать в проекте, и его заменили Стивеном Диллэйном.
MediaInfo
Общее
Уникальный идентификатор : 171838918988820393994824490716120022693 (0x8146F8D2F8B68D6F8F6A14E768D8FEA5)
Полное имя : Гавань.2004.WEB-DLRip.720p.mkv
Формат : Matroska
Версия формата : Version 2
Размер файла : 4,60 Гбайт
Продолжительность : 1 ч. 38 м.
Общий поток : 6671 Кбит/сек
Дата кодирования : UTC 2018-08-26 03:12:58
Программа кодирования : mkvmerge v5.8.0 ('No Sleep / Pillow') built on Sep 2 2012 15:37:04
Библиотека кодирования : libebml v1.2.3 + libmatroska v1.3.0

Видео
Идентификатор : 1
Формат : AVC
Формат/Информация : Advanced Video Codec
Профиль формата : [email protected]
Параметр CABAC формата : Да
Параметр ReFrames формата : 9 кадров
Режим смешивания : Header stripping
Идентификатор кодека : V_MPEG4/ISO/AVC
Продолжительность : 1 ч. 38 м.
Битрейт : 6000 Кбит/сек
Ширина : 1280 пикселей
Высота : 696 пикселей
Соотношение сторон : 1,85:1
Режим частоты кадров : Постоянный
Частота кадров : 24,000 кадра/сек
Цветовое пространство : YUV
Субдискретизация насыщенности : 4:2:0
Битовая глубина : 8 бит
Тип развёртки : Прогрессивная
Бит/(Пиксели*Кадры) : 0.281
Размер потока : 4,05 Гбайт (88%)
Библиотека кодирования : x264 core 155 r2893 b00bcaf
Настройки программы : cabac=1 / ref=9 / deblock=1:-3:-3 / analyse=0x3:0x133 / me=umh / subme=11 / psy=1 / psy_rd=1.00:0.10 / mixed_ref=1 / me_range=48 / chroma_me=1 / trellis=2 / 8x8dct=1 / cqm=0 / deadzone=21,11 / fast_pskip=0 / chroma_qp_offset=-3 / threads=6 / lookahead_threads=1 / sliced_threads=0 / nr=0 / decimate=0 / interlaced=0 / bluray_compat=0 / constrained_intra=0 / bframes=14 / b_pyramid=2 / b_adapt=2 / b_bias=0 / direct=3 / weightb=1 / open_gop=0 / weightp=2 / keyint=240 / keyint_min=23 / scenecut=40 / intra_refresh=0 / rc=2pass / mbtree=0 / bitrate=6000 / ratetol=1.0 / qcomp=0.60 / qpmin=0 / qpmax=39 / qpstep=4 / cplxblur=20.0 / qblur=0.5 / ip_ratio=1.40 / pb_ratio=1.30 / aq=3:0.90
Язык : English
Default : Да
Forced : Нет
Основные цвета : BT.709
Характеристики трансфера : BT.709
Коэффициенты матрицы : BT.709

Аудио #1
Идентификатор : 2
Формат : AC-3
Формат/Информация : Audio Coding 3
Расширение режима : CM (complete main)
Параметр Endianness формата : Big
Режим смешивания : Header stripping
Идентификатор кодека : A_AC3
Продолжительность : 1 ч. 38 м.
Вид битрейта : Постоянный
Битрейт : 448 Кбит/сек
Каналы : 6 каналов
Расположение каналов : Front: L C R, Side: L R, LFE
Частота : 48,0 КГц
Битовая глубина : 16 бит
Метод сжатия : С потерями
Размер потока : 317 Мбайт (7%)
Заголовок : DUB | Мосфильм-Мастер
Язык : Russian
Default : Да
Forced : Нет

Аудио #2
Идентификатор : 3
Формат : E-AC-3
Формат/Информация : Audio Coding 3
Параметр Endianness формата : Big
Режим смешивания : Header stripping
Идентификатор кодека : A_EAC3
Продолжительность : 1 ч. 38 м.
Вид битрейта : Постоянный
Битрейт : 224 Кбит/сек
Каналы : 2 канала
Расположение каналов : Front: L R
Частота : 48,0 КГц
Метод сжатия : С потерями
Размер потока : 158 Мбайт (3%)
Заголовок : Original
Язык : English
Default : Нет
Forced : Нет

Текст #1
Идентификатор : 4
Формат : UTF-8
Идентификатор кодека : S_TEXT/UTF8
Идентификатор кодека/Информация : UTF-8 Plain Text
Заголовок : Full
Язык : Russian
Default : Нет
Forced : Нет

Текст #2
Идентификатор : 5
Формат : UTF-8
Идентификатор кодека : S_TEXT/UTF8
Идентификатор кодека/Информация : UTF-8 Plain Text
Заголовок : SDH
Язык : English
Default : Нет
Forced : Нет

Меню
00:00:00.000 : en:Chapter 1
00:08:08.597 : en:Chapter 2
00:17:05.175 : en:Chapter 3
00:27:29.674 : en:Chapter 4
00:36:11.946 : en:Chapter 5
00:44:43.373 : en:Chapter 6
00:53:30.692 : en:Chapter 7
00:58:38.791 : en:Chapter 8
01:06:58.957 : en:Chapter 9
01:19:12.023 : en:Chapter 10
01:27:17.758 : en:Chapter 11
01:34:19.346 : en:Chapter 12
Скриншоты
 

Вложения

  • 23,9 KB Просмотры: 1
    Личеров 0
    Сидеров 0
    Файлов 1
    Объем 4,6 GB

Привет!

Мы группа людей которые решили помочь другим в решении их проблем, а так же пользователям с поиском самых свежих и качественных инфопродуктов. За 4 с небольшим месяца мы создали этот форум на который заходят ежедневно тысячи человек и посещаемость постоянно растёт. Мы создали панель лицензирования для защиты PHP скриптов от воровства и SEO панель для мониторинга наших сайтов и выбора верной стратегии их развития. Мы надеемся что то что мы создали пригодится Вам и возможно Вы поможете нам развиваться и совершенствоваться вместе с Вами.

Статистика форума

Темы
410.521
Сообщения
469.056
Пользователи
85.938
Новый пользователь
tatarstroy

Приложения форума для iOS и Android


У ркн там нет власти ;)
Приватные разговоры
Помощь Пользователи
    Вы не присоединились ни к одной комнате.