За последнюю неделю опубликовано 86 новых материалов.
Инструкция новичку Путеводитель по форуму Прокси для Telegram Показать подсказки , это бомба!

Скачать Гарольд и Кумар: Побег из Гуантанамо / Harold & Kumar Escape from Guantanamo Bay (2008) HDRip-AVC | P | Расширенная версия бесплатно через торрент

  • Поучаствуй (в качестве покупателя) в любых пяти совместных покупках (кроме завершённых и "Моментальных") и получи группу "Новичок" навсегда -> ссылка на раздел
  • Получай до 480 рублей за каждого приглашенного пользователя!
    представляем Вам очередное расширение партнерской программы, подробности описаны тут -> ссылка
  • 90% материалов доступно к скачиванию после простой регистрации!
    Если же ты хочешь скачивать материалы без требования оставлять отзывы то получи группу "Новичок", 10 способов повышения описаны тут -> ссылка
  • К сожалению количество битых ссылок растет и мы уже не можем их оперативно восстанавливать поэтому просим помощи у каждого нашего пользователя.
    С сегодняшнего дня, за каждую восстановленную ссылку мы заплатим Вам.
    Подробнее тут -> ссылка
  • Перенесем твои заслуги с другого ресурса!
    Мы понимаем как сложно прокачивать аккаунты на форумах, вроде раскачал аккаунт, а тут появляется ресурс в 100 раз круче но тоже с системой прокачки и снова качать аккаунт...
    Предлагаем вам перенести Ваши заслуги на другом подобном ресурсе к нам.
    Подробности описаны тут -> ссылка
  • Вы можете получать по 2.5% с каждой покупки и продажи на маркете! Подробности в теме Партнёрская программа
Если Вы не хотите скачивать, Вы всегда можетепосмотретьонлайн, просто нажмите кнопку ниже :

Открыть плеер

Torrent_Bot

Торрент-Бот
Бот форума
4 Окт 2016
102
153
20

Информация о фильме
Название: Гарольд и Кумар 2: Побег из Гуантанамо
Оригинальное название: Harold & Kumar Escape from Guantanamo Bay
Год выхода: 2008
Жанр: комедия, приключения
Режиссер: Джон Харвитц, Хейден Шлоссберг
В ролях: Джон Чо, Кэл Пенн, Роб Кордри, Джек Конли, Роджер Барт, Нил Патрик Харрис, Дэннил Харрис, Эрик Винтер, Паула Гарсес

О фильме:
Гарольд и Кумар рассчитывают весело провести каникулы в Амстердаме и вдоволь порасширять сознание, однако чересчур бдительные попутчики принимают друзей за террористов... Парочка бежит по всей стране от властей, которые подозревает в двух обкурышах террористов после того, как те безуспешно пытались протащить на самолёт, летящий в Амстердам, кальян для курения травки... Серьёзно, зачем в Амстердаме ещё один кальян?!



Выпущено: США
Продолжительность: 01:47:46
Перевод: Профессиональный (многоголосый, закадровый)
Субтитры: русские, английские
Навигация по главам: есть

Файл
Формат: Matroska
Качество: HDRip-AVC
Видео: 736x398 at 23.976 fps, x264, ~902 kbps, 0.128 bpp
Аудио: AAC, 2 ch, ~64 kbps - | Русский | -
Формат субтитров: softsub (SRT)

***Релиз от:-=DoMiNo=-

M/I
x264 [info]: frame I:1817 Avg QP:18.23 size: 35238
x264 [info]: frame P:35958 Avg QP:21.48 size: 10071
x264 [info]: frame B:117168 Avg QP:23.07 size: 2533

General
Format : Matroska
Format version : Version 4
File size : 746 MiB
Duration : 1 h 47 min
Overall bit rate : 968 kb/s
Movie name : Гарольд и Кумар -Побег из Гуантанамо.(2008).HDRip-AVC.[-=DoMiNo=-]
Encoded date : UTC 2020-05-12 19:22:55
Writing application : mkvmerge v46.0.0 ('No Deeper Escape') 64-bit
Writing library : libebml v1.3.10 + libmatroska v1.5.2
Cover : Yes
Attachments : cover.png / cover 2.jpg

Video
ID : 1
Format : AVC
Format/Info : Advanced Video Codec
Format profile : High@L4.1
Format settings : CABAC / 12 Ref Frames
Format settings, CABAC : Yes
Format settings, Reference : 12 frames
Codec ID : V_MPEG4/ISO/AVC
Duration : 1 h 47 min
Bit rate : 902 kb/s
Width : 736 pixels
Height : 398 pixels
Display aspect ratio : 1.85:1
Frame rate mode : Constant
Frame rate : 23.976 (24000/1001) FPS
Color space : YUV
Chroma subsampling : 4:2:0
Bit depth : 8 bits
Scan type : Progressive
Bits/(Pixel*Frame) : 0.128
Stream size : 695 MiB (93%)
Title : RIP BY -=DoMiNo=-
Writing library : x264 core 160 r3000 33f9e14
Encoding settings : cabac=1 / ref=12 / deblock=1:-1:-1 / analyse=0x3:0x133 / me=umh / subme=11 / psy=1 / psy_rd=1.00:0.00 / mixed_ref=1 / me_range=32 / chroma_me=1 / trellis=2 / 8x8dct=1 / cqm=0 / deadzone=21,11 / fast_pskip=0 / chroma_qp_offset=-2 / threads=6 / lookahead_threads=1 / sliced_threads=0 / nr=0 / decimate=0 / interlaced=0 / bluray_compat=0 / constrained_intra=0 / bframes=12 / b_pyramid=2 / b_adapt=2 / b_bias=0 / direct=3 / weightb=1 / open_gop=0 / weightp=2 / keyint=250 / keyint_min=23 / scenecut=40 / intra_refresh=0 / rc_lookahead=80 / rc=2pass / mbtree=1 / bitrate=902 / ratetol=1.0 / qcomp=0.80 / qpmin=0 / qpmax=69 / qpstep=4 / cplxblur=20.0 / qblur=0.5 / vbv_maxrate=50000 / vbv_bufsize=62500 / nal_hrd=none / filler=0 / ip_ratio=1.40 / aq=1:1.00
Language : English
Default : Yes
Forced : No
Color range : Limited
Color primaries : BT.709
Transfer characteristics : BT.709
Matrix coefficients : BT.709

Audio
ID : 2
Format : AAC LC SBR
Format/Info : Advanced Audio Codec Low Complexity with Spectral Band Replication
Commercial name : HE-AAC
Format settings : Implicit
Codec ID : A_AAC-2
Duration : 1 h 47 min
Bit rate : 64.0 kb/s
Channel(s) : 2 channels
Channel layout : L R
Sampling rate : 48.0 kHz
Frame rate : 23.438 FPS (2048 SPF)
Compression mode : Lossy
Stream size : 49.3 MiB (7%)
Title : MVO
Language : Russian
Default : Yes
Forced : No

Text #1
ID : 3
Format : UTF-8
Codec ID : S_TEXT/UTF8
Codec ID/Info : UTF-8 Plain Text
Duration : 1 h 46 min
Bit rate : 118 b/s
Count of elements : 1705
Stream size : 92.4 KiB (0%)
Language : Russian
Default : No
Forced : No

Text #2
ID : 4
Format : UTF-8
Codec ID : S_TEXT/UTF8
Codec ID/Info : UTF-8 Plain Text
Duration : 1 h 45 min
Bit rate : 77 b/s
Count of elements : 1689
Stream size : 60.0 KiB (0%)
Language : English
Default : No
Forced : No

Menu
00:03:50.564 : en:Chapter1
00:08:21.752 : en:Chapter2
00:12:58.153 : en:Chapter3
00:16:51.928 : en:Chapter4
00:23:12.183 : en:Chapter5
00:28:21.159 : en:Chapter6
00:32:32.993 : en:Chapter7
00:38:00.195 : en:Chapter8
00:49:04.192 : en:Chapter9
00:59:55.342 : en:Chapter10
01:09:33.712 : en:Chapter11
01:16:12.652 : en:Chapter12
01:33:50.709 : en:Chapter13
01:38:29.946 : en:Chapter14
Скриншоты
 

Вложения

  • 30,2 KB Просмотры: 0
    Личеров 0
    Сидеров 0
    Файлов 1
    Объем 746,4 MB

Привет!

Мы группа людей которые решили помочь другим в решении их проблем, а так же пользователям с поиском самых свежих и качественных инфопродуктов. За 4 с небольшим месяца мы создали этот форум на который заходят ежедневно тысячи человек и посещаемость постоянно растёт. Мы создали панель лицензирования для защиты PHP скриптов от воровства и SEO панель для мониторинга наших сайтов и выбора верной стратегии их развития. Мы надеемся что то что мы создали пригодится Вам и возможно Вы поможете нам развиваться и совершенствоваться вместе с Вами.

Статистика форума

Темы
405.448
Сообщения
462.411
Пользователи
80.449
Новый пользователь
okop

Приложения форума для iOS и Android


У ркн там нет власти ;)
Приватные разговоры
Помощь Пользователи
    Вы не присоединились ни к одной комнате.