За последнюю неделю опубликовано 28 новых материалов.
Инструкция новичку Путеводитель по форуму Прокси для Telegram Показать подсказки , это бомба!

Скачать Ганди / Gandhi (1982) UHD BDRemux 2160p от селезень | 4K | HDR | D бесплатно через торрент

  • Поучаствуй (в качестве покупателя) в любых пяти совместных покупках (кроме завершённых и "Моментальных") и получи группу "Новичок" навсегда -> ссылка на раздел
  • Получай до 480 рублей за каждого приглашенного пользователя!
    представляем Вам очередное расширение партнерской программы, подробности описаны тут -> ссылка
  • 90% материалов доступно к скачиванию после простой регистрации!
    Если же ты хочешь скачивать материалы без требования оставлять отзывы то получи группу "Новичок", 10 способов повышения описаны тут -> ссылка
  • К сожалению количество битых ссылок растет и мы уже не можем их оперативно восстанавливать поэтому просим помощи у каждого нашего пользователя.
    С сегодняшнего дня, за каждую восстановленную ссылку мы заплатим Вам.
    Подробнее тут -> ссылка
  • Перенесем твои заслуги с другого ресурса!
    Мы понимаем как сложно прокачивать аккаунты на форумах, вроде раскачал аккаунт, а тут появляется ресурс в 100 раз круче но тоже с системой прокачки и снова качать аккаунт...
    Предлагаем вам перенести Ваши заслуги на другом подобном ресурсе к нам.
    Подробности описаны тут -> ссылка
  • Вы можете получать по 2.5% с каждой покупки и продажи на маркете! Подробности в теме Партнёрская программа
Если Вы не хотите скачивать, Вы всегда можетепосмотретьонлайн, просто нажмите кнопку ниже :

Открыть плеер

Torrent_Bot

Торрент-Бот
Бот форума
4 Окт 2016
93
160
20


Информация о фильме
Название: Ганди
Оригинальное название: Gandhi
Год выхода: 1982
Жанр: Драма, исторический, биография
Режиссер: Ричард Аттенборо
В ролях: Бен Кингсли, Кэндис Берген, Эдвард Фокс, Джон Гилгуд, Тревор Ховард, Джон Миллс, Мартин Шин, Иэн Чарлсон, Атол Фугард, Гюнтер Мария Халмер, Дэниэл Дэй-Льюис



О фильме: В 1869 году, когда Ганди родился, его страна ещё была украшением Британской империи и одной из драгоценностей королевы Виктории. 30 января 1948 года, в день его убийства, Индия была свободной. Это стало плодом его трудов, трудов долгой титанической жизни.

Страна: Великобритания, Индия
Студия: International Film Investors, National Film Development Corporation of India (NFDC), Goldcrest Films International
Продолжительность: 03:11:15
Перевод: Дублированный

Качество: BDRemux 2160p
Видео: 3840x2160 at 23.976 fps, MPEG-H HEVC HDR Video, 54800 kbps avg
Аудио #01: 48 kHz, AC3, 2.0, 192 Kbps | Дублированный | RUS |
Аудио #02: 48 kHz, TrueHD, 7.1, 3582 Kbps | Оригинал | ENG |
Аудио #03: 48 kHz, AC3, 5.1, 640 Kbps | Оригинал | ENG |
Субтитры: Русские (Full), английские



MI
General
Unique ID : 274404678673611824027402323275562430035 (0xCE706B33720EF55130E6314D1A512E53)
Complete name : E:Video111Gandhi.1982.BDREMUX.2160p.HDR.seleZen.mkv
Format : Matroska
Format version : Version 4
File size : 80.4 GiB
Duration : 3 h 11 min
Overall bit rate mode : Variable
Overall bit rate : 60.2 Mb/s
Movie name : Gandhi 1982 from селезень
Encoded date : UTC 2020-06-22 13:33:04
Writing application : mkvmerge v40.0.0 ('Old Town Road + Pony') 64-bit
Writing library : libebml v1.3.9 + libmatroska v1.5.2

Video
ID : 1
Format : HEVC
Format/Info : High Efficiency Video Coding
Format profile : Main [email protected]@High
HDR format : SMPTE ST 2086, HDR10 compatible
Codec ID : V_MPEGH/ISO/HEVC
Duration : 3 h 11 min
Bit rate : 55.7 Mb/s
Width : 3 840 pixels
Height : 2 160 pixels
Display aspect ratio : 16:9
Frame rate mode : Constant
Frame rate : 23.976 (24000/1001) FPS
Color space : YUV
Chroma subsampling : 4:2:0 (Type 2)
Bit depth : 10 bits
Bits/(Pixel*Frame) : 0.280
Stream size : 74.4 GiB (93%)
Language : English
Default : Yes
Forced : No
Color range : Limited
Color primaries : BT.2020
Transfer characteristics : PQ
Matrix coefficients : BT.2020 non-constant
Mastering display color pri : Display P3
Mastering display luminance : min: 0.0050 cd/m2, max: 4000 cd/m2
Maximum Content Light Level : 3991 cd/m2
Maximum Frame-Average Light : 240 cd/m2

Audio #1
ID : 2
Format : AC-3
Format/Info : Audio Coding 3
Commercial name : Dolby Digital
Codec ID : A_AC3
Duration : 3 h 11 min
Bit rate mode : Constant
Bit rate : 192 kb/s
Channel(s) : 2 channels
Channel layout : L R
Sampling rate : 48.0 kHz
Frame rate : 31.250 FPS (1536 SPF)
Compression mode : Lossy
Stream size : 263 MiB (0%)
Title : Dub
Language : Russian
Service kind : Complete Main
Default : Yes
Forced : Yes

Audio #2
ID : 3
Format : MLP FBA 16-ch
Format/Info : Meridian Lossless Packing FBA with 16-channel presentation
Commercial name : Dolby TrueHD with Dolby Atmos
Codec ID : A_TRUEHD
Duration : 3 h 11 min
Bit rate mode : Variable
Bit rate : 3 582 kb/s
Maximum bit rate : 6 633 kb/s
Channel(s) : 8 channels
Channel layout : L R C LFE Ls Rs Lb Rb
Sampling rate : 48.0 kHz
Frame rate : 1 200.000 FPS (40 SPF)
Compression mode : Lossless
Stream size : 4.79 GiB (6%)
Title : Original
Language : English
Default : No
Forced : No
Number of dynamic objects : 11
Bed channel count : 1 channel
Bed channel configuration : LFE

Audio #3
ID : 4
Format : AC-3
Format/Info : Audio Coding 3
Commercial name : Dolby Digital
Codec ID : A_AC3
Duration : 3 h 11 min
Bit rate mode : Constant
Bit rate : 640 kb/s
Channel(s) : 6 channels
Channel layout : L R C LFE Ls Rs
Sampling rate : 48.0 kHz
Frame rate : 31.250 FPS (1536 SPF)
Compression mode : Lossy
Stream size : 875 MiB (1%)
Language : English
Service kind : Complete Main
Default : No
Forced : No

Text #1
ID : 5
Format : UTF-8
Codec ID : S_TEXT/UTF8
Codec ID/Info : UTF-8 Plain Text
Duration : 3 h 3 min
Bit rate : 89 b/s
Count of elements : 2060
Stream size : 121 KiB (0%)
Title : Full
Language : Russian
Default : No
Forced : No

Text #2
ID : 6
Format : UTF-8
Codec ID : S_TEXT/UTF8
Codec ID/Info : UTF-8 Plain Text
Duration : 3 h 1 min
Bit rate : 48 b/s
Count of elements : 1924
Stream size : 64.7 KiB (0%)
Title : Full
Language : English
Default : No
Forced : No

Text #3
ID : 7
Format : UTF-8
Codec ID : S_TEXT/UTF8
Codec ID/Info : UTF-8 Plain Text
Duration : 3 h 10 min
Bit rate : 53 b/s
Count of elements : 2309
Stream size : 75.2 KiB (0%)
Title : SDH
Language : English
Default : No
Forced : No

Menu
00:00:00.000 : en:Глава 01
00:05:59.651 : en:Глава 02
00:11:13.256 : en:Глава 03
00:17:10.154 : en:Глава 04
00:25:54.052 : en:Глава 05
00:31:14.706 : en:Глава 06
00:36:10.251 : en:Глава 07
00:41:21.688 : en:Глава 08
00:45:25.056 : en:Глава 09
00:48:33.994 : en:Глава 10
00:56:18.709 : en:Глава 11
01:03:11.997 : en:Глава 12
01:11:47.220 : en:Глава 13
01:14:37.431 : en:Глава 14
01:24:00.953 : en:Глава 15
01:29:22.107 : en:Глава 16
01:32:00.352 : en:Глава 17
01:41:15.949 : en:Глава 18
01:44:49.329 : en:Глава 19
01:55:52.908 : en:Глава 20
01:58:40.159 : en:Глава 21
02:05:59.681 : en:Глава 22
02:14:33.861 : en:Глава 23
02:20:52.156 : en:Глава 24
02:25:44.448 : en:Глава 25
02:31:09.189 : en:Глава 26
02:36:54.617 : en:Глава 27
02:41:28.224 : en:Глава 28
02:42:39.337 : en:Глава 29
02:47:57.446 : en:Глава 30
02:54:18.327 : en:Глава 31
03:02:03.249 : en:Глава 32

Релиз от:

 

Вложения

  • 101,5 KB Просмотры: 0
    Личеров 0
    Сидеров 0
    Файлов 1
    Объем 80,4 GB

Привет!

Мы группа людей которые решили помочь другим в решении их проблем, а так же пользователям с поиском самых свежих и качественных инфопродуктов. За 4 с небольшим месяца мы создали этот форум на который заходят ежедневно тысячи человек и посещаемость постоянно растёт. Мы создали панель лицензирования для защиты PHP скриптов от воровства и SEO панель для мониторинга наших сайтов и выбора верной стратегии их развития. Мы надеемся что то что мы создали пригодится Вам и возможно Вы поможете нам развиваться и совершенствоваться вместе с Вами.

Статистика форума

Темы
406.613
Сообщения
465.071
Пользователи
84.478
Новый пользователь
Кирилл23

Приложения форума для iOS и Android


У ркн там нет власти ;)
Приватные разговоры
Помощь Пользователи
    Вы не присоединились ни к одной комнате.