За последнюю неделю опубликовано 187 новых материалов.
Инструкция новичку Путеводитель по форуму Прокси для Telegram Показать подсказки , это бомба!

Скачать Ганц: О / Gantz: O (2016) BDRip 720р от FreeRutor | P бесплатно через торрент

  • Поучаствуй (в качестве покупателя) в любых пяти совместных покупках (кроме завершённых и "Моментальных") и получи группу "Новичок" навсегда -> ссылка на раздел
  • Получай до 480 рублей за каждого приглашенного пользователя!
    представляем Вам очередное расширение партнерской программы, подробности описаны тут -> ссылка
  • 90% материалов доступно к скачиванию после простой регистрации!
    Если же ты хочешь скачивать материалы без требования оставлять отзывы то получи группу "Новичок", 10 способов повышения описаны тут -> ссылка
  • К сожалению количество битых ссылок растет и мы уже не можем их оперативно восстанавливать поэтому просим помощи у каждого нашего пользователя.
    С сегодняшнего дня, за каждую восстановленную ссылку мы заплатим Вам.
    Подробнее тут -> ссылка
  • Перенесем твои заслуги с другого ресурса!
    Мы понимаем как сложно прокачивать аккаунты на форумах, вроде раскачал аккаунт, а тут появляется ресурс в 100 раз круче но тоже с системой прокачки и снова качать аккаунт...
    Предлагаем вам перенести Ваши заслуги на другом подобном ресурсе к нам.
    Подробности описаны тут -> ссылка
  • Вы можете получать по 2.5% с каждой покупки и продажи на маркете! Подробности в теме Партнёрская программа

Torrent_Bot

Торрент-Бот
Бот форума
4 Окт 2016
124
94
20
Информация о фильме
Название: Ганц: О
Оригинальное название: Gantz: O
Год выхода: 2016
Жанр: Мультфильм, ужасы, фантастика, триллер, драма
Режиссер: Ясуси Кавамура, Кейити Саито
В ролях: Дайсукэ Оно, Саори Хаями, Мао Итимити, Тэруаки Огава, Масая Оносака, Юки Кадзи, Томохиро Каку, Сюити Икэда, Кэндзиро Цуда, Масанэ Цукаяма

О фильме:
Где-то в Токио расположена обычная с виду комната, где находится чёрная сфера под названием Ганц. Время от времени в комнату телепортируются люди, которые должны были умереть в тот самый момент. Сфера снабжает их оружием и спецкостюмами и отправляет на смертельно опасное задание: убивать пришельцев, обосновавшихся на Земле, о чём обычные люди не догадываются. С заданий возвращаются не все.

422a7f0a3de48852757af38d39d8cac6.gif4e80fce37c53f62161c10d3a8f3ab572.gif

Официальный сайт

Выпущено: Япония / Digital Frontier
Продолжительность: 01:35:12
Перевод: Профессиональный многоголосый [AlexFilm]

Файл
Формат: MKV
Качество: BDRip 720р
Видео: MPEG-4 AVC, 9226 Кбит/с, 1280x690
Аудио 1: Русский (AC3, 6 ch, 384 Кбит/с) MVO
Аудио 2: Японский (AC3, 6 ch, 640 Кбит/с) Original
Субтитры: Русские, английские

Семпл

MI
Общее
Уникальный идентификатор : 231196607598324528456837538674387049850 (0xADEED8D276F40E538328A5A56C9DDD7A)
Полное имя : E:Раздача-BDRipGanc_O.2016.BDRip 720p_FreeRutor.mkv
Формат : Matroska
Версия формата : Version 2
Размер файла : 6,82 Гбайт
Продолжительность : 1 ч. 35 м.
Общий поток : 10,3 Мбит/сек
Название фильма : Gantz: O (2016) BDRip 720p_FreeRutor_grab777
Дата кодирования : UTC 2017-03-25 21:37:28
Программа кодирования : mkvmerge v5.8.0 ('No Sleep / Pillow') built on Sep 2 2012 15:37:04
Библиотека кодирования : libebml v1.2.3 + libmatroska v1.3.0

Видео
Идентификатор : 1
Формат : AVC
Формат/Информация : Advanced Video Codec
Профиль формата : High@L4.1
Параметр CABAC формата : Да
Параметр ReFrames формата : 9 кадров
Идентификатор кодека : V_MPEG4/ISO/AVC
Продолжительность : 1 ч. 35 м.
Битрейт : 9226 Кбит/сек
Ширина : 1280 пикселей
Высота : 690 пикселей
Соотношение сторон : 1,85:1
Режим частоты кадров : Постоянный
Частота кадров : 23,976 кадра/сек
Цветовое пространство : YUV
Субдискретизация насыщенности : 4:2:0
Битовая глубина : 8 бит
Тип развёртки : Прогрессивная
Бит/(Пиксели*Кадры) : 0.436
Размер потока : 6,00 Гбайт (88%)
Библиотека кодирования : x264 core 129 r2245+704+36 8e61944 tMod+MixAQ [8-bit@4:2:0 X86_64]
Настройки программы : cabac=1 / ref=9 / deblock=1:-3:-3 / analyse=0x3:0x133 / me=umh / subme=11 / psy=1 / fade_compensate=0.00 / psy_rd=1.05:0.10 / mixed_ref=1 / me_range=32 / chroma_me=1 / trellis=2 / 8x8dct=1 / cqm=0 / deadzone=21,11 / fast_pskip=0 / chroma_qp_offset=-3 / threads=18 / lookahead_threads=3 / sliced_threads=0 / nr=0 / decimate=0 / interlaced=0 / bluray_compat=0 / constrained_intra=0 / fgo=0 / bframes=12 / b_pyramid=2 / b_adapt=2 / b_bias=0 / direct=3 / weightb=1 / open_gop=0 / weightp=2 / keyint=250 / keyint_min=23 / scenecut=40 / intra_refresh=0 / rc=2pass / mbtree=0 / bitrate=9226 / ratetol=1.0 / qcomp=0.80 / qpmin=0 / qpmax=69 / qpstep=4 / cplxblur=20.0 / qblur=0.5 / ip_ratio=1.20 / pb_ratio=1.10 / aq=1 / aq-strength=0.80 / aq-sensitivity=10.00 / aq-ifactor=1.00 / aq-pfactor=1.00 / aq-bfactor=1.00 / aq2=0
Язык : Japanese
Default : Да
Forced : Нет

Аудио #1
Идентификатор : 2
Формат : AC-3
Формат/Информация : Audio Coding 3
Расширение режима : CM (complete main)
Параметр Endianness формата : Big
Идентификатор кодека : A_AC3
Продолжительность : 1 ч. 35 м.
Вид битрейта : Постоянный
Битрейт : 384 Кбит/сек
Каналы : 6 каналов
Расположение каналов : Front: L C R, Side: L R, LFE
Частота : 48,0 КГц
Битовая глубина : 16 бит
Метод сжатия : С потерями
Размер потока : 262 Мбайт (4%)
Заголовок : MVO (AlexFilm)
Язык : Russian
Default : Да
Forced : Нет

Аудио #2
Идентификатор : 3
Формат : AC-3
Формат/Информация : Audio Coding 3
Расширение режима : CM (complete main)
Параметр Endianness формата : Big
Идентификатор кодека : A_AC3
Продолжительность : 1 ч. 35 м.
Вид битрейта : Постоянный
Битрейт : 640 Кбит/сек
Каналы : 6 каналов
Расположение каналов : Front: L C R, Side: L R, LFE
Частота : 48,0 КГц
Битовая глубина : 16 бит
Метод сжатия : С потерями
Размер потока : 436 Мбайт (6%)
Заголовок : Original
Язык : Japanese
Default : Нет
Forced : Нет

Текст #1
Идентификатор : 4
Формат : UTF-8
Идентификатор кодека : S_TEXT/UTF8
Идентификатор кодека/Информация : UTF-8 Plain Text
Язык : Russian
Default : Нет
Forced : Нет

Текст #2
Идентификатор : 5
Формат : UTF-8
Идентификатор кодека : S_TEXT/UTF8
Идентификатор кодека/Информация : UTF-8 Plain Text
Язык : English
Default : Нет
Forced : Нет

Меню
00:00:00.000 : en:00:00:00.000
00:04:29.894 : en:00:04:29.894
00:15:29.053 : en:00:15:29.053
00:26:43.727 : en:00:26:43.727
00:42:17.785 : en:00:42:17.785
00:58:29.172 : en:00:58:29.172
01:10:47.034 : en:01:10:47.034
01:21:59.247 : en:01:21:59.247
01:30:03.397 : en:01:30:03.397
01:35:11.831 : en:01:35:11.831
Скриншоты
93481ba8acd194f25c02b153264dcc81.jpgfb3519206ead3d3a2f7603771bd081e4.jpg42bf098efbea0de02e8500afae29940f.jpgbe5085e5628b98d99e5b263e0ef99d3e.jpg34e45fdec31102a41be3dc9aa386b760.jpg3718747fb419bd4749e33759a294d142.jpg

Релиз от:
 

Вложения

Ваш e-mail не будет опубликован. Он потребуется для подтверждения Вашего поста.
Оформление текста Нажмите «Ввод», чтобы отправить ответ.

Привет!

Мы группа людей которые решили помочь другим в решении их проблем, а так же пользователям с поиском самых свежих и качественных инфопродуктов. За 4 с небольшим месяца мы создали этот форум на который заходят ежедневно тысячи человек и посещаемость постоянно растёт. Мы создали панель лицензирования для защиты PHP скриптов от воровства и SEO панель для мониторинга наших сайтов и выбора верной стратегии их развития. Мы надеемся что то что мы создали пригодится Вам и возможно Вы поможете нам развиваться и совершенствоваться вместе с Вами.

Статистика форума

Темы
378.734
Сообщения
417.982
Пользователи
49.573
Новый пользователь
krd

Приложения форума для iOS и Android


У ркн там нет власти ;)
Приватные разговоры
Помощь Пользователи
    Вы не присоединились ни к одной комнате.