За последнюю неделю опубликовано 49 новых материалов.
Инструкция новичку Путеводитель по форуму Прокси для Telegram Показать подсказки , это бомба!

Скачать Гамбит / Gambit (1966) BDRip 1080p | P, A бесплатно через торрент

  • Поучаствуй (в качестве покупателя) в любых пяти совместных покупках (кроме завершённых и "Моментальных") и получи группу "Новичок" навсегда -> ссылка на раздел
  • Получай до 480 рублей за каждого приглашенного пользователя!
    представляем Вам очередное расширение партнерской программы, подробности описаны тут -> ссылка
  • 90% материалов доступно к скачиванию после простой регистрации!
    Если же ты хочешь скачивать материалы без требования оставлять отзывы то получи группу "Новичок", 10 способов повышения описаны тут -> ссылка
  • К сожалению количество битых ссылок растет и мы уже не можем их оперативно восстанавливать поэтому просим помощи у каждого нашего пользователя.
    С сегодняшнего дня, за каждую восстановленную ссылку мы заплатим Вам.
    Подробнее тут -> ссылка
  • Перенесем твои заслуги с другого ресурса!
    Мы понимаем как сложно прокачивать аккаунты на форумах, вроде раскачал аккаунт, а тут появляется ресурс в 100 раз круче но тоже с системой прокачки и снова качать аккаунт...
    Предлагаем вам перенести Ваши заслуги на другом подобном ресурсе к нам.
    Подробности описаны тут -> ссылка
  • Вы можете получать по 2.5% с каждой покупки и продажи на маркете! Подробности в теме Партнёрская программа
Если Вы не хотите скачивать, Вы всегда можетепосмотретьонлайн, просто нажмите кнопку ниже :

Открыть плеер

Torrent_Bot

Торрент-Бот
Бот форума
4 Окт 2016
93
160
20

Информация о фильме
Название: Гамбит
Оригинальное название: Gambit
Год выхода: 1966
Жанр: триллер, комедия, криминал
Режиссер: Роналд Ним
В ролях: Ширли МакЛейн, Майкл Кейн, Херберт Лом, Роджер С. Кармел, Арнольд Мосс, Джон Эбботт, Ричард Ангарола, Морис Марсак, Джо Абдулла, Том Андре

О фильме:
Гарри Дин планирует совершить ограбление века, но его план будет неосуществим без участия европейской интриганки и красавицы Николь. Причем для выполнения преступного замысла Дину нужна именно красота Николь и ее способность к перевоплощениям. Объект кражи очень необычен — это бесценный, хорошо охраняемый музейный раритет. Сообщникам придется очень постараться, чтобы добиться своей цели.



Страна: США
Студия: Universal Pictures
Продолжительность: 01:48:26
Перевод: Многоголосый профессиональный, авторский (одноголосый закадровый)
Субтитры: Английские (Full)

Файл
Качество: BDRip 1080p
Видео: AVC/H.264, 1920x816, ~11.1 Mbps
Аудио 1: AC3, 2 ch, 192 kbps - Русский, многоголосый (ОРТ)
Аудио 2: AC3, 2 ch, 192 kbps - Русский, многоголосый (СТС)
Аудио 3: AC3, 2 ch, 192 kbps - Русский, многоголосый (Настроение Video, R5)
Аудио 4: AC3, 2 ch, 192 kbps - Русский, авторский (Алексей Медведев)
Аудио 5: AC3, 2 ch, 640 kbps - Английский (Оригинал)
Релиз от: karfagen1975 | NNMClub

M/I
x264 [info]: frame I:973 Avg QP:16.04 size:179814
x264 [info]: frame P:31010 Avg QP:18.59 size: 91505
x264 [info]: frame B:123998 Avg QP:20.40 size: 48506
x264 [info]: consecutive B-frames: 1.2% 1.7% 7.4% 11.2% 14.3% 54.4% 6.2% 1.6% 1.0% 0.8% 0.2% 0.1% 0.1%
-----------------------------------------------------------------------------------------------------------------------
General
Format : Matroska
Format version : Version 4
File size : 9.48 GiB
Duration : 1 h 48 min
Overall bit rate : 12.5 Mb/s
Movie name : Gambit.1966.BDRip.1080p.NNMClub
Encoded date : UTC 2020-06-29 09:04:32
Writing application : mkvmerge v46.0.0 ('No Deeper Escape') 64-bit
Writing library : libebml v1.3.10 + libmatroska v1.5.2

Video
ID : 1
Format : AVC
Format/Info : Advanced Video Codec
Format profile : [email protected]
Format settings : CABAC / 5 Ref Frames
Format settings, CABAC : Yes
Format settings, Reference : 5 frames
Codec ID : V_MPEG4/ISO/AVC
Duration : 1 h 48 min
Bit rate : 11.1 Mb/s
Width : 1 920 pixels
Height : 816 pixels
Display aspect ratio : 2.35:1
Frame rate mode : Constant
Frame rate : 23.976 (24000/1001) FPS
Color space : YUV
Chroma subsampling : 4:2:0
Bit depth : 8 bits
Scan type : Progressive
Bits/(Pixel*Frame) : 0.295
Stream size : 8.41 GiB (89%)
Title : Gambit.1966.BDRip.1080p.NNMClub
Writing library : x264 core 160 r3009 4c9b076
Encoding settings : cabac=1 / ref=5 / deblock=1:-1:-1 / analyse=0x3:0x133 / me=umh / subme=10 / psy=1 / psy_rd=1.05:0.05 / mixed_ref=1 / me_range=64 / chroma_me=1 / trellis=2 / 8x8dct=1 / cqm=0 / deadzone=21,11 / fast_pskip=0 / chroma_qp_offset=-3 / threads=4 / lookahead_threads=1 / sliced_threads=0 / nr=0 / decimate=0 / interlaced=0 / bluray_compat=0 / constrained_intra=0 / bframes=12 / b_pyramid=2 / b_adapt=2 / b_bias=0 / direct=3 / weightb=1 / open_gop=0 / weightp=2 / keyint=240 / keyint_min=23 / scenecut=40 / intra_refresh=0 / rc_lookahead=60 / rc=2pass / mbtree=0 / bitrate=11100 / ratetol=1.0 / qcomp=0.60 / qpmin=0 / qpmax=69 / qpstep=4 / cplxblur=20.0 / qblur=0.5 / vbv_maxrate=50000 / vbv_bufsize=62500 / nal_hrd=none / filler=0 / ip_ratio=1.40 / pb_ratio=1.30 / aq=1:1.00
Language : English
Default : Yes
Forced : No

Audio #1
ID : 2
Format : AC-3
Format/Info : Audio Coding 3
Commercial name : Dolby Digital
Codec ID : A_AC3
Duration : 1 h 48 min
Bit rate mode : Constant
Bit rate : 192 kb/s
Channel(s) : 2 channels
Channel layout : L R
Sampling rate : 48.0 kHz
Frame rate : 31.250 FPS (1536 SPF)
Compression mode : Lossy
Stream size : 149 MiB (2%)
Title : MVO-ОРТ
Language : Russian
Service kind : Complete Main
Default : No
Forced : No

Audio #2
ID : 3
Format : AC-3
Format/Info : Audio Coding 3
Commercial name : Dolby Digital
Codec ID : A_AC3
Duration : 1 h 48 min
Bit rate mode : Constant
Bit rate : 192 kb/s
Channel(s) : 2 channels
Channel layout : L R
Sampling rate : 48.0 kHz
Frame rate : 31.250 FPS (1536 SPF)
Compression mode : Lossy
Stream size : 149 MiB (2%)
Title : MVO-СТС
Language : Russian
Service kind : Complete Main
Default : No
Forced : No

Audio #3
ID : 4
Format : AC-3
Format/Info : Audio Coding 3
Commercial name : Dolby Digital
Codec ID : A_AC3
Duration : 1 h 48 min
Bit rate mode : Constant
Bit rate : 192 kb/s
Channel(s) : 2 channels
Channel layout : L R
Sampling rate : 48.0 kHz
Frame rate : 31.250 FPS (1536 SPF)
Compression mode : Lossy
Stream size : 149 MiB (2%)
Title : MVO-Настроение Video, R5
Language : Russian
Service kind : Complete Main
Default : No
Forced : No

Audio #4
ID : 5
Format : AC-3
Format/Info : Audio Coding 3
Commercial name : Dolby Digital
Codec ID : A_AC3
Duration : 1 h 48 min
Bit rate mode : Constant
Bit rate : 192 kb/s
Channel(s) : 2 channels
Channel layout : L R
Sampling rate : 48.0 kHz
Frame rate : 31.250 FPS (1536 SPF)
Compression mode : Lossy
Stream size : 149 MiB (2%)
Title : AVO-А. Медведев
Language : Russian
Service kind : Complete Main
Default : No
Forced : No

Audio #5
ID : 6
Format : AC-3
Format/Info : Audio Coding 3
Commercial name : Dolby Digital
Codec ID : A_AC3
Duration : 1 h 48 min
Bit rate mode : Constant
Bit rate : 640 kb/s
Channel(s) : 2 channels
Channel layout : L R
Sampling rate : 48.0 kHz
Frame rate : 31.250 FPS (1536 SPF)
Compression mode : Lossy
Stream size : 496 MiB (5%)
Title : Original
Language : English
Service kind : Complete Main
Default : No
Forced : No

Text
ID : 7
Format : UTF-8
Codec ID : S_TEXT/UTF8
Codec ID/Info : UTF-8 Plain Text
Duration : 1 h 43 min
Bit rate : 53 b/s
Count of elements : 1055
Stream size : 40.7 KiB (0%)
Language : English
Default : No
Forced : No

Menu
00:00:00.000 : en:Chapter 1
00:10:07.941 : en:Chapter 2
00:20:32.398 : en:Chapter 3
00:31:26.510 : en:Chapter 4
00:41:00.667 : en:Chapter 5
00:48:54.390 : en:Chapter 6
01:00:52.899 : en:Chapter 7
01:11:48.930 : en:Chapter 8
01:19:49.660 : en:Chapter 9
01:29:33.660 : en:Chapter 10
01:35:40.735 : en:Chapter 11
01:41:48.936 : en:Chapter 12
Дополнительно:
ЦитатаКто-то писал:
За исходник Большое спасибо MasonKaV.
Награды:
Оскар, 1967 год
Номинации (3):
Лучшая работа художника (цветные фильмы)
Лучшая работа художника по костюмам (цветные фильмы)
Лучший звук

Золотой глобус, 1967 год
Номинации (3):
Лучшая женская роль (комедия или мюзикл) (Ширли Маклейн)
Лучшая мужская роль (комедия или мюзикл) (Майкл Кейн)
Лучший фильм (комедия или мюзикл)
Скриншоты
 

Вложения

  • 48,3 KB Просмотры: 0
    Личеров 0
    Сидеров 0
    Файлов 1
    Объем 9,5 GB

Привет!

Мы группа людей которые решили помочь другим в решении их проблем, а так же пользователям с поиском самых свежих и качественных инфопродуктов. За 4 с небольшим месяца мы создали этот форум на который заходят ежедневно тысячи человек и посещаемость постоянно растёт. Мы создали панель лицензирования для защиты PHP скриптов от воровства и SEO панель для мониторинга наших сайтов и выбора верной стратегии их развития. Мы надеемся что то что мы создали пригодится Вам и возможно Вы поможете нам развиваться и совершенствоваться вместе с Вами.

Статистика форума

Темы
406.640
Сообщения
465.116
Пользователи
84.572
Новый пользователь
x485

Приложения форума для iOS и Android


У ркн там нет власти ;)
Приватные разговоры
Помощь Пользователи
    Вы не присоединились ни к одной комнате.