За последнюю неделю опубликовано 62 новых материалов.
Инструкция новичку Путеводитель по форуму Прокси для Telegram Показать подсказки , это бомба!

Скачать Гамбит / Gambit (1966) BDRemux 1080p | P, A бесплатно через торрент

  • Поучаствуй (в качестве покупателя) в любых пяти совместных покупках (кроме завершённых и "Моментальных") и получи группу "Новичок" навсегда -> ссылка на раздел
  • Получай до 480 рублей за каждого приглашенного пользователя!
    представляем Вам очередное расширение партнерской программы, подробности описаны тут -> ссылка
  • 90% материалов доступно к скачиванию после простой регистрации!
    Если же ты хочешь скачивать материалы без требования оставлять отзывы то получи группу "Новичок", 10 способов повышения описаны тут -> ссылка
  • К сожалению количество битых ссылок растет и мы уже не можем их оперативно восстанавливать поэтому просим помощи у каждого нашего пользователя.
    С сегодняшнего дня, за каждую восстановленную ссылку мы заплатим Вам.
    Подробнее тут -> ссылка
  • Перенесем твои заслуги с другого ресурса!
    Мы понимаем как сложно прокачивать аккаунты на форумах, вроде раскачал аккаунт, а тут появляется ресурс в 100 раз круче но тоже с системой прокачки и снова качать аккаунт...
    Предлагаем вам перенести Ваши заслуги на другом подобном ресурсе к нам.
    Подробности описаны тут -> ссылка
  • Вы можете получать по 2.5% с каждой покупки и продажи на маркете! Подробности в теме Партнёрская программа
Если Вы не хотите скачивать, Вы всегда можетепосмотретьонлайн, просто нажмите кнопку ниже :

Открыть плеер

Torrent_Bot

Торрент-Бот
Бот форума
4 Окт 2016
92
160
20

Информация о фильме
Название: Гамбит
Оригинальное название: Gambit
Год выхода: 1966
Жанр: триллер, комедия, криминал
Режиссер: Роналд Ним
В ролях: Ширли МакЛейн, Майкл Кейн, Херберт Лом, Роджер С. Кармел, Арнольд Мосс, Джон Эбботт, Ричард Ангарола, Морис Марсак, Джо Абдулла, Том Андре

О фильме:
Гарри Дин планирует совершить ограбление века, но его план будет неосуществим без участия европейской интриганки и красавицы Николь. Причем для выполнения преступного замысла Дину нужна именно красота Николь и ее способность к перевоплощениям. Объект кражи очень необычен — это бесценный, хорошо охраняемый музейный раритет. Сообщникам придется очень постараться, чтобы добиться своей цели.



Страна: США
Студия: Universal Pictures
Продолжительность: 01:48:26
Перевод: Многоголосый профессиональный, авторский (одноголосый закадровый)
Субтитры: Английские (Full)

Файл
Тип релиза: BDRemux 1080p
Контейнер: MKV
Источник: Gambit 1966 1080p GER Blu-ray AVC DTS-HD MA 2 0-OLDHAM
Видео: MPEG-4 AVC / 22991 kbps / 1080p / 23.976 fps / 16:9 / High Profile 4.1
Аудио 1: Русский / AC3 / 2.0 / 48 kHz / 192 kbps - MVO ОРТ
Аудио 2: Русский / AC3 / 2.0 / 48 kHz / 192 kbps - MVO СТС
Аудио 3: Русский / AC3 / 2.0 / 48 kHz / 192 kbps - MVO R5 Настроение Video
Аудио 4: Русский / AC3 / 2.0 / 48 kHz / 192 kbps - AVO Алексей Медведев
Аудио 5: Английский / DTS-HD Master Audio / 2.0 / 48 kHz / 1981 kbps / 24-bit (DTS Core: 2.0 / 48 kHz / 1509 kbps / 24-bit)
Формат субтитров: SRT/PGS

M/I
General
Unique ID : 89868810956394297781194229219324244253 (0x439C1A78FEC27AE90DFC11E9C486B11D)
Complete name : Gambit.1966.BDRemux.mkv
Format : Matroska
Format version : Version 4
File size : 19.5 GiB
Duration : 1 h 48 min
Overall bit rate mode : Variable
Overall bit rate : 25.7 Mb/s
Movie name : Gambit.1966.BDRemux-MasonKaV
Encoded date : UTC 2020-06-27 11:35:36
Writing application : mkvmerge v47.0.0 ('Black Flag') 64-bit
Writing library : libebml v1.3.10 + libmatroska v1.5.2

Video
ID : 1
Format : AVC
Format/Info : Advanced Video Codec
Format profile : [email protected]
Format settings : CABAC / 4 Ref Frames
Format settings, CABAC : Yes
Format settings, Reference : 4 frames
Format settings, GOP : M=3, N=12
Codec ID : V_MPEG4/ISO/AVC
Duration : 1 h 48 min
Bit rate mode : Variable
Bit rate : 22.9 Mb/s
Maximum bit rate : 33.0 Mb/s
Width : 1 920 pixels
Height : 1 080 pixels
Display aspect ratio : 16:9
Frame rate mode : Constant
Frame rate : 23.976 (24000/1001) FPS
Color space : YUV
Chroma subsampling : 4:2:0
Bit depth : 8 bits
Scan type : Progressive
Bits/(Pixel*Frame) : 0.461
Stream size : 17.4 GiB (89%)
Language : English
Default : Yes
Forced : No

Audio #1
ID : 2
Format : AC-3
Format/Info : Audio Coding 3
Commercial name : Dolby Digital
Codec ID : A_AC3
Duration : 1 h 48 min
Bit rate mode : Constant
Bit rate : 192 kb/s
Channel(s) : 2 channels
Channel layout : L R
Sampling rate : 48.0 kHz
Frame rate : 31.250 FPS (1536 SPF)
Compression mode : Lossy
Stream size : 149 MiB (1%)
Title : MVO, ОРТ
Language : Russian
Service kind : Complete Main
Default : Yes
Forced : No

Audio #2
ID : 3
Format : AC-3
Format/Info : Audio Coding 3
Commercial name : Dolby Digital
Codec ID : A_AC3
Duration : 1 h 48 min
Bit rate mode : Constant
Bit rate : 192 kb/s
Channel(s) : 2 channels
Channel layout : L R
Sampling rate : 48.0 kHz
Frame rate : 31.250 FPS (1536 SPF)
Compression mode : Lossy
Stream size : 149 MiB (1%)
Title : MVO, СТС
Language : Russian
Service kind : Complete Main
Default : No
Forced : No

Audio #3
ID : 4
Format : AC-3
Format/Info : Audio Coding 3
Commercial name : Dolby Digital
Codec ID : A_AC3
Duration : 1 h 48 min
Bit rate mode : Constant
Bit rate : 192 kb/s
Channel(s) : 2 channels
Channel layout : L R
Sampling rate : 48.0 kHz
Frame rate : 31.250 FPS (1536 SPF)
Compression mode : Lossy
Stream size : 149 MiB (1%)
Title : MVO, R5 (Настроение Video)
Language : Russian
Service kind : Complete Main
Default : No
Forced : No

Audio #4
ID : 5
Format : AC-3
Format/Info : Audio Coding 3
Commercial name : Dolby Digital
Codec ID : A_AC3
Duration : 1 h 48 min
Bit rate mode : Constant
Bit rate : 192 kb/s
Channel(s) : 2 channels
Channel layout : L R
Sampling rate : 48.0 kHz
Frame rate : 31.250 FPS (1536 SPF)
Compression mode : Lossy
Stream size : 149 MiB (1%)
Title : AVO, Алексей Медведев
Language : Russian
Service kind : Complete Main
Default : No
Forced : No

Audio #5
ID : 6
Format : DTS XLL
Format/Info : Digital Theater Systems
Commercial name : DTS-HD Master Audio
Codec ID : A_DTS
Duration : 1 h 48 min
Bit rate mode : Variable
Bit rate : 1 982 kb/s
Channel(s) : 2 channels
Channel layout : L R
Sampling rate : 48.0 kHz
Frame rate : 93.750 FPS (512 SPF)
Bit depth : 24 bits
Compression mode : Lossless
Stream size : 1.50 GiB (8%)
Title : Original
Language : English
Default : No
Forced : No

Text #1
ID : 7
Format : UTF-8
Codec ID : S_TEXT/UTF8
Codec ID/Info : UTF-8 Plain Text
Duration : 1 h 43 min
Bit rate : 53 b/s
Count of elements : 1055
Stream size : 40.7 KiB (0%)
Title : Full
Language : English
Default : No
Forced : No

Text #2
ID : 8
Format : PGS
Muxing mode : zlib
Codec ID : S_HDMV/PGS
Codec ID/Info : Picture based subtitle format used on BDs/HD-DVDs
Duration : 1 h 43 min
Bit rate : 33.5 kb/s
Count of elements : 2111
Stream size : 24.8 MiB (0%)
Title : Full PGS
Language : English
Default : No
Forced : No

Menu
00:00:00.000 : :Chapter 1
00:10:07.941 : :Chapter 2
00:20:32.398 : :Chapter 3
00:31:26.510 : :Chapter 4
00:41:00.667 : :Chapter 5
00:48:54.390 : :Chapter 6
01:00:52.899 : :Chapter 7
01:11:48.930 : :Chapter 8
01:19:49.660 : :Chapter 9
01:29:33.660 : :Chapter 10
01:35:40.735 : :Chapter 11
01:41:48.936 : :Chapter 12
Дополнительно:
Награды:
Оскар, 1967 год
Номинации (3):
Лучшая работа художника (цветные фильмы)
Лучшая работа художника по костюмам (цветные фильмы)
Лучший звук

Золотой глобус, 1967 год
Номинации (3):
Лучшая женская роль (комедия или мюзикл) (Ширли Маклейн)
Лучшая мужская роль (комедия или мюзикл) (Майкл Кейн)
Лучший фильм (комедия или мюзикл)
Скриншоты
 

Вложения

  • 98,2 KB Просмотры: 0
    Личеров 0
    Сидеров 0
    Файлов 1
    Объем 19,5 GB

Привет!

Мы группа людей которые решили помочь другим в решении их проблем, а так же пользователям с поиском самых свежих и качественных инфопродуктов. За 4 с небольшим месяца мы создали этот форум на который заходят ежедневно тысячи человек и посещаемость постоянно растёт. Мы создали панель лицензирования для защиты PHP скриптов от воровства и SEO панель для мониторинга наших сайтов и выбора верной стратегии их развития. Мы надеемся что то что мы создали пригодится Вам и возможно Вы поможете нам развиваться и совершенствоваться вместе с Вами.

Статистика форума

Темы
406.656
Сообщения
465.104
Пользователи
84.661
Новый пользователь
tomik

Приложения форума для iOS и Android


У ркн там нет власти ;)
Приватные разговоры
Помощь Пользователи
    Вы не присоединились ни к одной комнате.