За последнюю неделю опубликовано 81 новых материалов.
Инструкция новичку Путеводитель по форуму Прокси для Telegram Показать подсказки , это бомба!

Скачать Фуука / Fuuka [S01] (2017) BDRip от Deadmauvlad | L2 | Без Цензуры бесплатно через торрент

  • Поучаствуй (в качестве покупателя) в любых пяти совместных покупках (кроме завершённых и "Моментальных") и получи группу "Новичок" навсегда -> ссылка на раздел
  • Получай до 480 рублей за каждого приглашенного пользователя!
    представляем Вам очередное расширение партнерской программы, подробности описаны тут -> ссылка
  • 90% материалов доступно к скачиванию после простой регистрации!
    Если же ты хочешь скачивать материалы без требования оставлять отзывы то получи группу "Новичок", 10 способов повышения описаны тут -> ссылка
  • К сожалению количество битых ссылок растет и мы уже не можем их оперативно восстанавливать поэтому просим помощи у каждого нашего пользователя.
    С сегодняшнего дня, за каждую восстановленную ссылку мы заплатим Вам.
    Подробнее тут -> ссылка
  • Перенесем твои заслуги с другого ресурса!
    Мы понимаем как сложно прокачивать аккаунты на форумах, вроде раскачал аккаунт, а тут появляется ресурс в 100 раз круче но тоже с системой прокачки и снова качать аккаунт...
    Предлагаем вам перенести Ваши заслуги на другом подобном ресурсе к нам.
    Подробности описаны тут -> ссылка
  • Вы можете получать по 2.5% с каждой покупки и продажи на маркете! Подробности в теме Партнёрская программа

Torrent_Bot

Торрент-Бот
Бот форума
4 Окт 2016
102
153
20

Название: Фуука
Оригинальное название: Fuuka
Год выхода: 2017
Жанр: романтика, этти, музыкальный, драма, школа, сёнэн
Режиссер: Кусакава Кэйдзо

Описание:
Сюжет рассказывает о парне по имени Ю Харуна, который только что перевёлся в новую школу. Он немного робкий, постоянно торчит в своем смартфоне и проверяет Twitter. Он встречает живую и энергичную девушку по имени Фука Акицуки, у которой даже нет сотового. Ю недавно восстановил общение через Twitter со своей подругой детства Коюки Хинаси, которая стала популярной певицей. И вот однажды Ю приглашает Фуку на концерт Коюки, где они втроем повстречаются в первый раз.






Перевод: Любительский (двухголосый закадровый) [DeadLine Studio]
Работа со звуком: Soer [DeadLine Studio]
Цензура: Нет ** (см.спойлер)

Качество: BDRip | Формат: .AVI| Кодек: XviD
Видео: 704x400 (16:9), 23.976 fps, 1621 Кбит/сек (0.240 bit/pixel)
Аудио №1: AC-3, 48,0 КГц, 2 ch, 192 Кбит/сек, CBR | | DeadLine Studio
Аудио №2: AC-3, 48,0 КГц, 2 ch, 192 /сек, CBR | | Japan (Оригинал)
Субтитры (Russian): ass, внешние | полный перевод


MediaInfo
Общее
Полное имя : D:Аниме[Deadmau-RAWS] Fuuka.S01.BDRip.RUS.JAP.Deadmauvlad[Deadmau-RAWS] Fuuka.S01.BDRip.RUS.JAP.Deadmauvlad.Ep.01.avi
Формат : AVI
Формат/Информация : Audio Video Interleave
Размер файла : 349 Мбайт
Продолжительность : 24 м. 11 с.
Общий поток : 2020 Кбит/сек
Название фильма : [Deadmau-RAWS] Fuuka.S01.BDRip.RUS.JAP.Deadmauvlad.Ep.01
Режиссёр : EncoDeR by Deadmauvlad
Жанр : трагедия, школа, этти
Программа кодирования : VirtualDubMod 1.5.10.3 | www.virtualdub-fr.org || (build 2550/release)
Формат оригинала/Имя : Аниме
Авторское право : EncoDeR by Deadmauvlad
Примечание : EncoDeR by Deadmauvlad

Видео
Идентификатор : 0
Формат : MPEG-4 Visual
Профиль формата : Advanced Simple@L5
Настройки формата : BVOP1 / Custom Matrix
Параметр BVOP формата : 1
Параметр QPel формата : Нет
Параметр GMC формата : Без точки перехода
Параметр матрицы формата : Выборочная
Идентификатор кодека : XVID
Идентификатор кодека/Подсказка : XviD
Продолжительность : 24 м. 11 с.
Битрейт : 1621 Кбит/сек
Ширина : 704 пикселя
Высота : 400 пикселей
Соотношение сторон : 16:9
Частота кадров : 23,976 (24000/1001) кадра/сек
Цветовое пространство : YUV
Субдискретизация насыщенности : 4:2:0
Битовая глубина : 8 бит
Тип развёртки : Прогрессивная
Метод сжатия : С потерями
Бит/(Пиксели*Кадры) : 0.240
Размер потока : 281 Мбайт (80%)
Библиотека кодирования : XviD 73

Аудио #1
Идентификатор : 1
Формат : AC-3
Формат/Информация : Audio Coding 3
Коммерческое название : Dolby Digital
Идентификатор кодека : 2000
Продолжительность : 24 м. 11 с.
Вид битрейта : Постоянный
Битрейт : 192 Кбит/сек
Каналы : 2 канала
Channel layout : L R
Частота : 48,0 КГц
Частота кадров : 31,250 кадров/сек (1536 SPF)
Битовая глубина : 16 бит
Метод сжатия : С потерями
Размер потока : 33,2 Мбайт (10%)
Выравнивание : Разделение по промежуткам
Продолжительность промежутка : 42 мс. (1,00 видеокадр)
Время предзагрузки промежутка : 500 мс.


Аудио #2
Идентификатор : 2
Формат : AC-3
Формат/Информация : Audio Coding 3
Коммерческое название : Dolby Digital
Идентификатор кодека : 2000
Продолжительность : 24 м. 11 с.
Вид битрейта : Постоянный
Битрейт : 192 Кбит/сек
Каналы : 2 канала
Channel layout : L R
Частота : 48,0 КГц
Частота кадров : 31,250 кадров/сек (1536 SPF)
Битовая глубина : 16 бит
Метод сжатия : С потерями
Размер потока : 33,2 Мбайт (10%)
Выравнивание : Разделение по промежуткам
Продолжительность промежутка : 42 мс. (1,00 видеокадр)
Время предзагрузки промежутка : 500 мс.



Список Серий
1. Fuuka!
2. Take Flight!
3. Triangle!
4. Live!
5. One of Us!
6. Koyuki Hinashi
7. Blown Up!
8. Top!
9. Date!
10. Fate
11. Band
12. Fair Wind


Хронология
#1 Suzuka - ТВ (26 эп.), адаптация манги, 2005
#2 >>>Fuuka - ТВ (12 эп.), адаптация манги, 2017 (Эта раздача)

WEBRip (HDTV) VS BDRip Отсутствие Цензуры тут **
Обзор BD Издания тут


Скриншоты

Релиз / Автор рипа: >Deadmauvlad <

BD Версия Без Цензуры !!

 

Вложения

  • 8,2 KB Просмотры: 1
    Личеров 0
    Сидеров 0
    Файлов 24
    Объем 4,1 GB

Привет!

Мы группа людей которые решили помочь другим в решении их проблем, а так же пользователям с поиском самых свежих и качественных инфопродуктов. За 4 с небольшим месяца мы создали этот форум на который заходят ежедневно тысячи человек и посещаемость постоянно растёт. Мы создали панель лицензирования для защиты PHP скриптов от воровства и SEO панель для мониторинга наших сайтов и выбора верной стратегии их развития. Мы надеемся что то что мы создали пригодится Вам и возможно Вы поможете нам развиваться и совершенствоваться вместе с Вами.

Статистика форума

Темы
405.441
Сообщения
462.402
Пользователи
80.449
Новый пользователь
okop

Приложения форума для iOS и Android


У ркн там нет власти ;)
Приватные разговоры
Помощь Пользователи
    Вы не присоединились ни к одной комнате.