За последнюю неделю опубликовано 30 новых материалов.
Инструкция новичку Путеводитель по форуму Прокси для Telegram Показать подсказки , это бомба!

Скачать Фурия / Hai Phuong (2019) BDRip 720p от k.e.n & MegaPeer | СВ Студия бесплатно через торрент

  • Поучаствуй (в качестве покупателя) в любых пяти совместных покупках (кроме завершённых и "Моментальных") и получи группу "Новичок" навсегда -> ссылка на раздел
  • Получай до 480 рублей за каждого приглашенного пользователя!
    представляем Вам очередное расширение партнерской программы, подробности описаны тут -> ссылка
  • 90% материалов доступно к скачиванию после простой регистрации!
    Если же ты хочешь скачивать материалы без требования оставлять отзывы то получи группу "Новичок", 10 способов повышения описаны тут -> ссылка
  • К сожалению количество битых ссылок растет и мы уже не можем их оперативно восстанавливать поэтому просим помощи у каждого нашего пользователя.
    С сегодняшнего дня, за каждую восстановленную ссылку мы заплатим Вам.
    Подробнее тут -> ссылка
  • Перенесем твои заслуги с другого ресурса!
    Мы понимаем как сложно прокачивать аккаунты на форумах, вроде раскачал аккаунт, а тут появляется ресурс в 100 раз круче но тоже с системой прокачки и снова качать аккаунт...
    Предлагаем вам перенести Ваши заслуги на другом подобном ресурсе к нам.
    Подробности описаны тут -> ссылка
  • Вы можете получать по 2.5% с каждой покупки и продажи на маркете! Подробности в теме Партнёрская программа
Если Вы не хотите скачивать, Вы всегда можетепосмотретьонлайн, просто нажмите кнопку ниже :

Открыть плеер

Torrent_Bot

Торрент-Бот
Бот форума
4 Окт 2016
93
160
20



Информация о фильме
Название: Фурия
Оригинальное название: Hai Phuong
Год выхода: 2019
Жанр: Боевик, криминал
Режиссер: Ле-Ван Киэт
В ролях: Вероника Нго, Дженнифер Аликс, Фам Анх Хоа, Тхань Ньен Фан, Брианна Робертс, Элизабет Суит, Ким Лонг Тач, Хоа Чан

О фильме:
10 лет назад бывшая глава преступной группировки залегла на дно в сельской местности, родила девочку и наслаждается простым женским счастьем. Поскольку делать женщина ничего полезного не умеет, то занимается сбором долгов. Дочка Май из-за этого переживает и мечтает, что когда-нибудь они откроют рыбную ферму, и маме больше не нужно будет выполнять эту постыдную работу. Внезапно Май похищает международная организация торговцев людьми, и женщина превращается в смертоносную фурию — она пойдёт до конца, чтобы спасти дочь, а негодяям придется пожалеть о своем поступке...



Страна: Вьетнам
Студия: Studio 68, Netflix
Продолжительность: 01:37:19
Перевод: Профессиональный многоголосый | СВ Студия -ненормативная лексика

Файл
Формат: MKV
Качество: BDRip 720p
Видео: H.264/AVC, 1280x536 (2.40:1), 24 fps, 4 500 kbps
Аудио: AC3, 48 kHz, 6 ch, 640 kbps (Russian)
Субтитры: Английский

Релиз от: &

MI
General
Unique ID : 250788908812268152444083659908827683735 (0xBCAC2FDA00255EDDBA3BFA88580D9B97)
Complete name : D:КИНО НА ДИСКФурия.2019 (Вьетнам).k.e.n & MegaPeer.mkv
Format : Matroska
Format version : Version 2
File size : 3.50 GiB
Duration : 1 h 37 min
Overall bit rate : 5 142 kb/s
Encoded date : UTC 2020-05-16 06:57:33
Writing application : mkvmerge v5.3.0 ('I could have danced') built on Feb 9 2012 10:38:07
Writing library : libebml v1.2.3 + libmatroska v1.3.0
Cover : Yes
Attachments : cover.jpg

Video
ID : 1
Format : AVC
Format/Info : Advanced Video Codec
Format profile : [email protected]
Format settings : CABAC / 12 Ref Frames
Format settings, CABAC : Yes
Format settings, ReFrames : 12 frames
Codec ID : V_MPEG4/ISO/AVC
Duration : 1 h 37 min
Bit rate : 4 500 kb/s
Width : 1 280 pixels
Height : 536 pixels
Display aspect ratio : 2.40:1
Frame rate mode : Constant
Frame rate : 24.000 FPS
Color space : YUV
Chroma subsampling : 4:2:0
Bit depth : 8 bits
Scan type : Progressive
Bits/(Pixel*Frame) : 0.273
Stream size : 2.99 GiB (86%)
Writing library : x264 core 160 r3000 33f9e14
Encoding settings : cabac=1 / ref=12 / deblock=1:-3:-3 / analyse=0x3:0x133 / me=umh / subme=11 / psy=1 / psy_rd=1.00:0.00 / mixed_ref=1 / me_range=32 / chroma_me=1 / trellis=2 / 8x8dct=1 / cqm=0 / deadzone=21,11 / fast_pskip=0 / chroma_qp_offset=-2 / threads=12 / lookahead_threads=4 / sliced_threads=0 / nr=0 / decimate=0 / interlaced=0 / bluray_compat=0 / constrained_intra=0 / bframes=12 / b_pyramid=2 / b_adapt=2 / b_bias=0 / direct=3 / weightb=1 / open_gop=0 / weightp=2 / keyint=240 / keyint_min=24 / scenecut=40 / intra_refresh=0 / rc=2pass / mbtree=0 / bitrate=4500 / ratetol=1.0 / qcomp=0.65 / qpmin=0 / qpmax=69 / qpstep=4 / cplxblur=20.0 / qblur=0.5 / ip_ratio=1.26 / pb_ratio=1.30 / aq=2:0.70
Language : English
Default : Yes
Forced : No
Color range : Limited
Color primaries : BT.709
Transfer characteristics : BT.709
Matrix coefficients : BT.709

Audio
ID : 2
Format : AC-3
Format/Info : Audio Coding 3
Commercial name : Dolby Digital
Codec ID : A_AC3
Duration : 1 h 37 min
Bit rate mode : Constant
Bit rate : 640 kb/s
Channel(s) : 6 channels
Channel layout : L R C LFE Ls Rs
Sampling rate : 48.0 kHz
Frame rate : 31.250 FPS (1536 SPF)
Bit depth : 16 bits
Compression mode : Lossy
Stream size : 446 MiB (12%)
Title : MVO | СВ Студия
Language : Russian
Service kind : Complete Main
Default : Yes
Forced : No

Text #1
ID : 3
Format : UTF-8
Codec ID : S_TEXT/UTF8
Codec ID/Info : UTF-8 Plain Text
Title : Full
Language : English
Default : No
Forced : No

Text #2
ID : 4
Format : UTF-8
Codec ID : S_TEXT/UTF8
Codec ID/Info : UTF-8 Plain Text
Title : SDH
Language : English
Default : No
Forced : No

Menu
00:00:00.000 : en:Chapter 1
00:07:58.083 : en:Chapter 2
00:18:37.750 : en:Chapter 3
00:25:33.375 : en:Chapter 4
00:34:46.750 : en:Chapter 5
00:45:30.500 : en:Chapter 6
00:54:38.791 : en:Chapter 7
01:02:59.416 : en:Chapter 8
01:09:26.125 : en:Chapter 9
01:13:43.541 : en:Chapter 10
01:23:34.208 : en:Chapter 11
01:32:52.708 : en:Chapter 12
01:37:18.458 : en:Chapter 13
Скриншоты


 

Вложения

  • 18,5 KB Просмотры: 0
    Личеров 0
    Сидеров 0
    Файлов 1
    Объем 3,5 GB

Привет!

Мы группа людей которые решили помочь другим в решении их проблем, а так же пользователям с поиском самых свежих и качественных инфопродуктов. За 4 с небольшим месяца мы создали этот форум на который заходят ежедневно тысячи человек и посещаемость постоянно растёт. Мы создали панель лицензирования для защиты PHP скриптов от воровства и SEO панель для мониторинга наших сайтов и выбора верной стратегии их развития. Мы надеемся что то что мы создали пригодится Вам и возможно Вы поможете нам развиваться и совершенствоваться вместе с Вами.

Статистика форума

Темы
406.605
Сообщения
465.028
Пользователи
84.390
Новый пользователь
князь владимир

Приложения форума для iOS и Android


У ркн там нет власти ;)
Приватные разговоры
Помощь Пользователи
    Вы не присоединились ни к одной комнате.