За последнюю неделю опубликовано 65 новых материалов.
Инструкция новичку Путеводитель по форуму Прокси для Telegram Показать подсказки , это бомба!

Скачать Фронт в тылу врага (1981) DVDRip от New-Team бесплатно через торрент

  • Поучаствуй (в качестве покупателя) в любых пяти совместных покупках (кроме завершённых и "Моментальных") и получи группу "Новичок" навсегда -> ссылка на раздел
  • Получай до 480 рублей за каждого приглашенного пользователя!
    представляем Вам очередное расширение партнерской программы, подробности описаны тут -> ссылка
  • 90% материалов доступно к скачиванию после простой регистрации!
    Если же ты хочешь скачивать материалы без требования оставлять отзывы то получи группу "Новичок", 10 способов повышения описаны тут -> ссылка
  • К сожалению количество битых ссылок растет и мы уже не можем их оперативно восстанавливать поэтому просим помощи у каждого нашего пользователя.
    С сегодняшнего дня, за каждую восстановленную ссылку мы заплатим Вам.
    Подробнее тут -> ссылка
  • Перенесем твои заслуги с другого ресурса!
    Мы понимаем как сложно прокачивать аккаунты на форумах, вроде раскачал аккаунт, а тут появляется ресурс в 100 раз круче но тоже с системой прокачки и снова качать аккаунт...
    Предлагаем вам перенести Ваши заслуги на другом подобном ресурсе к нам.
    Подробности описаны тут -> ссылка
  • Вы можете получать по 2.5% с каждой покупки и продажи на маркете! Подробности в теме Партнёрская программа
Если Вы не хотите скачивать, Вы всегда можетепосмотретьонлайн, просто нажмите кнопку ниже :

Открыть плеер

Torrent_Bot

Торрент-Бот
Бот форума
4 Окт 2016
92
163
20

Мы "В КОНТАКТЕ"

Страна: СССР, Чехословакия
Производство: Мосфильм, Баррандов (ЧССР), ДЕФА

Жанр: драма, военный
Год выпуска: 1981
Продолжительность: 02:29:48 (01:12:02 + 01:17:46)

Перевод: Не требуется
Cубтитры: нет
Оригинальная аудиодорожка: русский

Режиссер: Игорь Гостев

В ролях:
Вячеслав Тихонов, Валерия Заклунная, Евгений Матвеев, Иван Лапиков, Александр Михайлов, Вайва Майнелите, Тофик Мирзоев, Виктор Шульгин, Лев Поляков, Леонид Дьячков, Юрий Назаров, Михаил Кокшенов, Евгений Леонов-Гладышев, Раиса Рязанова, Паул Буткевич, Игорь Владимиров, Елизавета Солодова, Андро Кобаладзе, Владислав Стржельчик, Борис Химичев, Харри Пич, Ханньо Хассе, Лутц Риман, Эрих Тиде, Хорст Гизе, Мати Клоорен, Вилнис Бекерис, Николай Полищук, Валентина Ананьина, Елена Кузьмина (II), Виктор Косых, Иван Косых, Александр Лукьянов (II), Александр Иванов (III), Нартай Бегалин, Филимон Сергеев, Николай Фомин (IV), Дита Капланова, Алоис Швеглик, Иржи Крампол, Рудольф Елинек, Карел Бьелоградски, Адольф Филип, Яна Робенкова, Михал Вейростах, Отто Шевчик, Милан Сполс, Хана Чижкова, Богуслав Личман, Михаил Матюшевский, Герт Гючов, Лев Фричинский...
Об актёрах подробней

Описание:
По роману С. Цвигуна «Мы вернемся».
По мотивам документального романа С.К. Цвигуна «Мы вернёмся».
Третий фильм трилогии ("Фронт без флангов", "Фронт за линией фронта") продолжает рассказ о боевых действиях отряда особого назначения в тылу врага.





Источник: DVD9 R5
Качество видео: DVDRip
Формат видео: AVI

Видео: 688x288 (2,40:1), 25 fps, XviD ~ 1191 kbps avg, 0.240 bit/pixel
Аудио: 48 kHz, Dolby Digital AC3 2.0, 192 kbps

Раздача от:
MediaInfo
Общее
Полное имя : Front.v.tylu.vraga.1981.DVDRip_[New-team]_by_AVP_StudioСерия 1.avi
Формат : AVI
Формат/Информация : Audio Video Interleave
Размер файла : 718 Мбайт
Продолжительность : 1 ч. 12 м.
Общий поток : 1393 Кбит/сек
Программа кодирования : VirtualDubMod 1.5.10.3 | www.virtualdub-fr.org || (build 2550/release)
Библиотека кодирования : VirtualDubMod build 2550/release

Видео
Идентификатор : 0
Формат : MPEG-4 Visual
Профиль формата : Advanced [email protected]
Параметр BVOP формата : 1
Параметр QPel формата : Нет
Параметр GMC формата : Без точки перехода
Параметр матрицы формата : Выборочная
Идентификатор кодека : XVID
Идентификатор кодека/Подсказка : XviD
Продолжительность : 1 ч. 12 м.
Битрейт : 1191 Кбит/сек
Ширина : 688 пикселей
Высота : 288 пикселей
Соотношение сторон : 2,40:1
Частота кадров : 25,000 кадров/сек
Цветовое пространство : YUV
Субдискретизация насыщенности : 4:2:0
Битовая глубина : 8 бит
Тип развёртки : Прогрессивная
Метод сжатия : С потерями
Бит/(Пиксели*Кадры) : 0.240
Размер потока : 614 Мбайт (86%)
Библиотека кодирования : XviD 73

Аудио
Идентификатор : 1
Формат : AC-3
Формат/Информация : Audio Coding 3
Параметр Endianness формата : Big
Идентификатор кодека : 2000
Продолжительность : 1 ч. 12 м.
Вид битрейта : Постоянный
Битрейт : 192 Кбит/сек
Каналы : 2 канала
Расположение каналов : Front: L R
Частота : 48,0 КГц
Частота кадров : 31,250 кадров/сек (1536 spf)
Битовая глубина : 16 бит
Метод сжатия : С потерями
Размер потока : 98,9 Мбайт (14%)
Выравнивание : Разделение по промежуткам
Продолжительность промежутка : 40 мс. (1,00 видеокадр)
Время предзагрузки промежутка : 500 мс
Скриншоты
 

Вложения

  • 16 KB Просмотры: 1
    Личеров 0
    Сидеров 0
    Файлов 2
    Объем 1,5 GB

Привет!

Мы группа людей которые решили помочь другим в решении их проблем, а так же пользователям с поиском самых свежих и качественных инфопродуктов. За 4 с небольшим месяца мы создали этот форум на который заходят ежедневно тысячи человек и посещаемость постоянно растёт. Мы создали панель лицензирования для защиты PHP скриптов от воровства и SEO панель для мониторинга наших сайтов и выбора верной стратегии их развития. Мы надеемся что то что мы создали пригодится Вам и возможно Вы поможете нам развиваться и совершенствоваться вместе с Вами.

Статистика форума

Темы
406.672
Сообщения
465.117
Пользователи
84.730
Новый пользователь
Станислав788

Приложения форума для iOS и Android


У ркн там нет власти ;)
Приватные разговоры
Помощь Пользователи
    Вы не присоединились ни к одной комнате.