За последнюю неделю опубликовано 61 новых материалов.
Инструкция новичку Путеводитель по форуму Прокси для Telegram Показать подсказки , это бомба!

Скачать Фронт в тылу врага (1981) DVDRip-AVC от New-Team бесплатно через торрент

  • Поучаствуй (в качестве покупателя) в любых пяти совместных покупках (кроме завершённых и "Моментальных") и получи группу "Новичок" навсегда -> ссылка на раздел
  • Получай до 480 рублей за каждого приглашенного пользователя!
    представляем Вам очередное расширение партнерской программы, подробности описаны тут -> ссылка
  • 90% материалов доступно к скачиванию после простой регистрации!
    Если же ты хочешь скачивать материалы без требования оставлять отзывы то получи группу "Новичок", 10 способов повышения описаны тут -> ссылка
  • К сожалению количество битых ссылок растет и мы уже не можем их оперативно восстанавливать поэтому просим помощи у каждого нашего пользователя.
    С сегодняшнего дня, за каждую восстановленную ссылку мы заплатим Вам.
    Подробнее тут -> ссылка
  • Перенесем твои заслуги с другого ресурса!
    Мы понимаем как сложно прокачивать аккаунты на форумах, вроде раскачал аккаунт, а тут появляется ресурс в 100 раз круче но тоже с системой прокачки и снова качать аккаунт...
    Предлагаем вам перенести Ваши заслуги на другом подобном ресурсе к нам.
    Подробности описаны тут -> ссылка
  • Вы можете получать по 2.5% с каждой покупки и продажи на маркете! Подробности в теме Партнёрская программа
Если Вы не хотите скачивать, Вы всегда можетепосмотретьонлайн, просто нажмите кнопку ниже :

Открыть плеер

Torrent_Bot

Торрент-Бот
Бот форума
4 Окт 2016
82
186
20

Мы "В КОНТАКТЕ"

Страна: СССР, Чехословакия
Производство: Мосфильм, Баррандов (ЧССР), ДЕФА

Жанр: драма, военный
Год выпуска: 1981
Продолжительность: 02:29:48 (01:12:02 + 01:17:46)

Перевод: Не требуется
Cубтитры: нет
Оригинальная аудиодорожка: русский

Режиссер: Игорь Гостев

В ролях:
Вячеслав Тихонов, Валерия Заклунная, Евгений Матвеев, Иван Лапиков, Александр Михайлов, Вайва Майнелите, Тофик Мирзоев, Виктор Шульгин, Лев Поляков, Леонид Дьячков, Юрий Назаров, Михаил Кокшенов, Евгений Леонов-Гладышев, Раиса Рязанова, Паул Буткевич, Игорь Владимиров, Елизавета Солодова, Андро Кобаладзе, Владислав Стржельчик, Борис Химичев, Харри Пич, Ханньо Хассе, Лутц Риман, Эрих Тиде, Хорст Гизе, Мати Клоорен, Вилнис Бекерис, Николай Полищук, Валентина Ананьина, Елена Кузьмина (II), Виктор Косых, Иван Косых, Александр Лукьянов (II), Александр Иванов (III), Нартай Бегалин, Филимон Сергеев, Николай Фомин (IV), Дита Капланова, Алоис Швеглик, Иржи Крампол, Рудольф Елинек, Карел Бьелоградски, Адольф Филип, Яна Робенкова, Михал Вейростах, Отто Шевчик, Милан Сполс, Хана Чижкова, Богуслав Личман, Михаил Матюшевский, Герт Гючов, Лев Фричинский...
Об актёрах подробней

Описание:
По роману С. Цвигуна «Мы вернемся».
По мотивам документального романа С.К. Цвигуна «Мы вернёмся».
Третий фильм трилогии ("Фронт без флангов", "Фронт за линией фронта") продолжает рассказ о боевых действиях отряда особого назначения в тылу врага.





Источник: DVD9 R5
Качество видео: DVDRip-AVC
Формат видео: MKV

Видео: 696->921x392 (2,35:1), 25 fps, H264 ~ 1199 kbps avg, 0.176 bit/pixel
Аудио: 48 kHz, Dolby Digital AC3 2.0, 192 kbps

Раздача от:
MediaInfo
Общее
Полное имя : Front.v.tylu.vraga.1981.DVDRip-AVC_[New-team]_by_AVP_StudioСерия 1.mkv
Формат : Matroska
Версия формата : Version 2
Размер файла : 718 Мбайт
Продолжительность : 1 ч. 12 м.
Общий поток : 1393 Кбит/сек
Дата кодирования : UTC 2017-05-20 10:23:06
Программа кодирования : mkvmerge v6.1.0 ('Old Devil') built on Mar 4 2013 09:10:42
Библиотека кодирования : libebml v1.3.0 + libmatroska v1.4.0

Видео
Идентификатор : 1
Формат : AVC
Формат/Информация : Advanced Video Codec
Профиль формата : [email protected]
Параметр CABAC формата : Да
Параметр ReFrames формата : 10 кадров
Идентификатор кодека : V_MPEG4/ISO/AVC
Продолжительность : 1 ч. 12 м.
Битрейт : 1199 Кбит/сек
Ширина : 696 пикселей
Высота : 392 пикселя
Соотношение сторон : 2,35:1
Соотношение сторон в оригинале : 2,35:1
Режим частоты кадров : Постоянный
Частота кадров : 25,000 кадров/сек
Цветовое пространство : YUV
Субдискретизация насыщенности : 4:2:0
Битовая глубина : 8 бит
Тип развёртки : Прогрессивная
Бит/(Пиксели*Кадры) : 0.176
Размер потока : 604 Мбайт (84%)
Библиотека кодирования : x264 core 130 r2273 b3065e6
Настройки программы : cabac=1 / ref=10 / deblock=1:-2:-1 / analyse=0x3:0x113 / me=umh / subme=10 / psy=1 / psy_rd=1.00:0.00 / mixed_ref=1 / me_range=32 / chroma_me=1 / trellis=2 / 8x8dct=1 / cqm=0 / deadzone=21,11 / fast_pskip=1 / chroma_qp_offset=-2 / threads=6 / lookahead_threads=1 / sliced_threads=0 / nr=0 / decimate=0 / interlaced=0 / bluray_compat=0 / constrained_intra=0 / bframes=8 / b_pyramid=2 / b_adapt=2 / b_bias=0 / direct=3 / weightb=1 / open_gop=0 / weightp=2 / keyint=250 / keyint_min=25 / scenecut=40 / intra_refresh=0 / rc=2pass / mbtree=0 / bitrate=1199 / ratetol=1.0 / qcomp=0.60 / qpmin=0 / qpmax=69 / qpstep=4 / cplxblur=20.0 / qblur=0.5 / ip_ratio=1.40 / pb_ratio=1.30 / aq=1:1.00
Default : Да
Forced : Нет

Аудио
Идентификатор : 2
Формат : AC-3
Формат/Информация : Audio Coding 3
Параметр Endianness формата : Big
Идентификатор кодека : A_AC3
Продолжительность : 1 ч. 12 м.
Вид битрейта : Постоянный
Битрейт : 192 Кбит/сек
Каналы : 2 канала
Расположение каналов : Front: L R
Частота : 48,0 КГц
Частота кадров : 31,250 кадров/сек (1536 spf)
Битовая глубина : 16 бит
Метод сжатия : С потерями
Размер потока : 98,9 Мбайт (14%)
Default : Да
Forced : Нет
Скриншоты
 

Вложения

  • 15,9 KB Просмотры: 1
    Личеров 0
    Сидеров 0
    Файлов 2
    Объем 1,5 GB

Привет!

Мы группа людей которые решили помочь другим в решении их проблем, а так же пользователям с поиском самых свежих и качественных инфопродуктов. За 4 с небольшим месяца мы создали этот форум на который заходят ежедневно тысячи человек и посещаемость постоянно растёт. Мы создали панель лицензирования для защиты PHP скриптов от воровства и SEO панель для мониторинга наших сайтов и выбора верной стратегии их развития. Мы надеемся что то что мы создали пригодится Вам и возможно Вы поможете нам развиваться и совершенствоваться вместе с Вами.

Статистика форума

Темы
412.160
Сообщения
471.189
Пользователи
91.651
Новый пользователь
1flex2

Приложения форума для iOS и Android


У ркн там нет власти ;)
Приватные разговоры
Помощь Пользователи
    Вы не присоединились ни к одной комнате.