За последнюю неделю опубликовано 44 новых материалов.
Инструкция новичку Путеводитель по форуму Прокси для Telegram Показать подсказки , это бомба!

Скачать Форт Росс: В поисках приключений (2014) HDTV 1080i от MediaClub бесплатно через торрент

  • Поучаствуй (в качестве покупателя) в любых пяти совместных покупках (кроме завершённых и "Моментальных") и получи группу "Новичок" навсегда -> ссылка на раздел
  • Получай до 480 рублей за каждого приглашенного пользователя!
    представляем Вам очередное расширение партнерской программы, подробности описаны тут -> ссылка
  • 90% материалов доступно к скачиванию после простой регистрации!
    Если же ты хочешь скачивать материалы без требования оставлять отзывы то получи группу "Новичок", 10 способов повышения описаны тут -> ссылка
  • К сожалению количество битых ссылок растет и мы уже не можем их оперативно восстанавливать поэтому просим помощи у каждого нашего пользователя.
    С сегодняшнего дня, за каждую восстановленную ссылку мы заплатим Вам.
    Подробнее тут -> ссылка
  • Перенесем твои заслуги с другого ресурса!
    Мы понимаем как сложно прокачивать аккаунты на форумах, вроде раскачал аккаунт, а тут появляется ресурс в 100 раз круче но тоже с системой прокачки и снова качать аккаунт...
    Предлагаем вам перенести Ваши заслуги на другом подобном ресурсе к нам.
    Подробности описаны тут -> ссылка
  • Вы можете получать по 2.5% с каждой покупки и продажи на маркете! Подробности в теме Партнёрская программа
Если Вы не хотите скачивать, Вы всегда можетепосмотретьонлайн, просто нажмите кнопку ниже :

Открыть плеер

Torrent_Bot

Торрент-Бот
Бот форума
4 Окт 2016
90
168
20
Информация о фильме
Оригинальное название: Форт Росс: В поисках приключений
Год выхода: 2014
Жанр: Приключения, фантастика
Режиссер: Юрий Мороз
В ролях: Максим Матвеев, Анна Старшенбаум, Лайа Коста, Алексей Кирсанов, Максим Виноградов, Артём Ткаченко, Илья Соболев, Александр Петров, Маруся Климова, Кирилл Плетнёв

О фильме:
Раскрыта одна из главных интриг российской истории! Как вышло, что в XIX веке Россия навсегда лишилась своих земель в Северной Америке? Ведь ей принадлежала огромная территория от Аляски до Северной Калифорнии! В поисках ответа группа тележурналистов — интеллектуал Дмитрий, простодушный Фимка и красавица Марго — путешествуют во времени и пространстве, попадая то в царские дворцы, то в вигвамы индейцев.



Страна: Россия
Студия: Dreamteam Media, Kinokompaniya «MorozFilm», Ministerstvo kultury Rossiyskoy Federatsii
Продолжительность: 01:36:00
Язык: Русский

Файл
Кодек: MPEG-4 AVC
Качество: HDTV 1080i
Видео: 8765 Кбит/с, 1920x1080, 25.000 кадр/с
Звук: Русский (АС3, 2 ch, 192 Кбит/с) / (MP2, 2 ch, 192 Кбит/с)

Семпл

Скриншоты
MI
Общее
Идентификатор : 17 (0x11)
Полное имя : Fort.Ross.2014.HDTV(1080i).MediaClub.ts
Формат : MPEG-TS
Размер файла : 6,46 Гбайт
Продолжительность : 1 ч. 36 м.
Режим общего битрейта : Переменный
Общий поток : 9628 Кбит/сек

Видео
Идентификатор : 303 (0x12F)
Идентификатор меню : 17103 (0x42CF)
Формат : AVC
Формат/Информация : Advanced Video Codec
Профиль формата : [email protected]
Параметр CABAC формата : Да
Параметр ReFrames формата : 4 кадра
Идентификатор кодека : 27
Продолжительность : 1 ч. 36 м.
Битрейт : 8765 Кбит/сек
Ширина : 1920 пикселей
Высота : 1080 пикселей
Соотношение сторон : 16:9
Частота кадров : 25,000 кадров/сек
Стандарт вещания : Component
Цветовое пространство : YUV
Субдискретизация насыщенности : 4:2:0
Битовая глубина : 8 бит
Тип развёртки : Чересстрочная
Порядок развёртки : Верхнее поле первое
Бит/(Пиксели*Кадры) : 0.169
Размер потока : 5,88 Гбайт (91%)
Основные цвета : BT.709
Характеристики трансфера : BT.709
Коэффициенты матрицы : BT.709

Аудио #1
Идентификатор : 403 (0x193)
Идентификатор меню : 17103 (0x42CF)
Формат : MPEG Audio
Версия формата : Version 1
Профиль формата : Layer 2
Идентификатор кодека : 4
Продолжительность : 1 ч. 36 м.
Вид битрейта : Постоянный
Битрейт : 192 Кбит/сек
Каналы : 2 канала
Частота : 48,0 КГц
Метод сжатия : С потерями
Задержка видео : -848 мс.
Размер потока : 132 Мбайт (2%)
Язык : Russian
Язык, дополнительно : Clean effects

Аудио #2
Идентификатор : 423 (0x1A7)
Идентификатор меню : 17103 (0x42CF)
Формат : AC-3
Формат/Информация : Audio Coding 3
Расширение режима : CM (complete main)
Параметр Endianness формата : Big
Идентификатор кодека : 6
Продолжительность : 1 ч. 35 м.
Вид битрейта : Постоянный
Битрейт : 192 Кбит/сек
Каналы : 2 канала
Расположение каналов : Front: L R
Частота : 48,0 КГц
Битовая глубина : 16 бит
Метод сжатия : С потерями
Задержка видео : -744 мс.
Размер потока : 132 Мбайт (2%)
Язык : Russian
Язык, дополнительно : Clean effects

Меню
Идентификатор : 1703 (0x6A7)
Идентификатор меню : 17103 (0x42CF)
Продолжительность : 1 ч. 36 м.
Список : 303 (0x12F) (AVC) / 403 (0x193) (MPEG Audio, Russian) / 423 (0x1A7) (AC-3, Russian)
Язык : / Russian / Russian

Релиз от:
 

Вложения

  • 33,4 KB Просмотры: 1
    Личеров 0
    Сидеров 0
    Файлов 1
    Объем 6,5 GB

Привет!

Мы группа людей которые решили помочь другим в решении их проблем, а так же пользователям с поиском самых свежих и качественных инфопродуктов. За 4 с небольшим месяца мы создали этот форум на который заходят ежедневно тысячи человек и посещаемость постоянно растёт. Мы создали панель лицензирования для защиты PHP скриптов от воровства и SEO панель для мониторинга наших сайтов и выбора верной стратегии их развития. Мы надеемся что то что мы создали пригодится Вам и возможно Вы поможете нам развиваться и совершенствоваться вместе с Вами.

Статистика форума

Темы
410.952
Сообщения
469.378
Пользователи
88.412
Новый пользователь
Anamso

Приложения форума для iOS и Android


У ркн там нет власти ;)
Приватные разговоры
Помощь Пользователи
    Вы не присоединились ни к одной комнате.