За последнюю неделю опубликовано 30 новых материалов.
Инструкция новичку Путеводитель по форуму Прокси для Telegram Показать подсказки , это бомба!

Скачать Форпост / The Outpost (2020) BDRip 720p от ExKinoRay | HDRezka Studio бесплатно через торрент

  • Поучаствуй (в качестве покупателя) в любых пяти совместных покупках (кроме завершённых и "Моментальных") и получи группу "Новичок" навсегда -> ссылка на раздел
  • Получай до 480 рублей за каждого приглашенного пользователя!
    представляем Вам очередное расширение партнерской программы, подробности описаны тут -> ссылка
  • 90% материалов доступно к скачиванию после простой регистрации!
    Если же ты хочешь скачивать материалы без требования оставлять отзывы то получи группу "Новичок", 10 способов повышения описаны тут -> ссылка
  • К сожалению количество битых ссылок растет и мы уже не можем их оперативно восстанавливать поэтому просим помощи у каждого нашего пользователя.
    С сегодняшнего дня, за каждую восстановленную ссылку мы заплатим Вам.
    Подробнее тут -> ссылка
  • Перенесем твои заслуги с другого ресурса!
    Мы понимаем как сложно прокачивать аккаунты на форумах, вроде раскачал аккаунт, а тут появляется ресурс в 100 раз круче но тоже с системой прокачки и снова качать аккаунт...
    Предлагаем вам перенести Ваши заслуги на другом подобном ресурсе к нам.
    Подробности описаны тут -> ссылка
  • Вы можете получать по 2.5% с каждой покупки и продажи на маркете! Подробности в теме Партнёрская программа
Если Вы не хотите скачивать, Вы всегда можетепосмотретьонлайн, просто нажмите кнопку ниже :

Открыть плеер

Torrent_Bot

Торрент-Бот
Бот форума
4 Окт 2016
93
160
20




Название: Форпост
Оригинальное название: The Outpost
Год выхода: 2020
Жанр: Боевик, военный, драма, история
Режиссер: Род Лури
В ролях: Орландо Блум, Скотт Иствуд, Калеб Лэндри Джонс, Майло Гибсон, Бобби Локвуд, Джейкоб Скипио, Джек Кеси, Селина Синден, Тейлор Джон Смит, Александр Арнольд, Кори Хардрикт, Уильям Аттэнборо, Кваме Паттерсон, Фахим Фазли, Джонатан Юнгер


О фильме:
Действия фильма происходят 3 октября 2009 года в Афганистане. У подножия гор, недалеко от поселения Кадмеш, расположился американский Форпост. Тай Картер и сержант Ромеш Клинтон имеют в своем распоряжении пятьдесят три бойца. Никто из них не ожидал, что им предстоит отбивать прорыв многочисленной банды талибов. Четыреста человек готовятся к наступлению, и солдаты просто не могут отдать позиции. Несмотря на неравные силы, бойцы готовы дать отпор, действуя строго по уставу. Им не приходится ждать помощи, поскольку следующая база слишком далека от них. Смогут ли они выполнить свой долг и отбить нападение, и какую цену им предстоит заплатить?




Страна: США, Болгария
Студия: Millennium Media, York Films
Продолжительность: 02:03:13
Перевод: Профессиональный многоголосый | HDRezka Studio

*** Присутствует ненормативная лексика во 2-ой дорожке!

Формат: MKV
Качество: BDRip 720p
Видео: MPEG-4 AVC, 1280x694, 4140 kbps, 23.976 fps
Аудио 1: 48 kHz, AC3, 5.1, 448 Kbps | MVO | RUS | - цензурная
Аудио 2: 48 kHz, AC3, 5.1, 448 Kbps | MVO | RUS | - нецензурная
Аудио 3: 48 kHz, AC3, 5.1, 640 Kbps | Оригинал | ENG |
Субтитры: Русские (форс), английские



ОтчетМедиаИнфо
General
Unique ID : 175291799556142276575129131385189529975 (0x83DFF8FACF945022ABEF71AB73AF7977)
Complete name : D:The Outpost.2020.MVO.HDRezka.Studio.BDRip.720p.ExKinoRay.mkv
Format : Matroska
Format version : Version 2
File size : 4.98 GiB
Duration : 2 h 3 min
Overall bit rate : 5 791 kb/s
Movie name : The Outpost 2020 from ExKinoRay
Encoded date : UTC 2020-08-09 14:47:50
Writing application : mkvmerge v5.6.0 ('Kenya Kane') built on May 27 2012 16:44:04
Writing library : libebml v1.2.3 + libmatroska v1.3.0

Video
ID : 1
Format : AVC
Format/Info : Advanced Video Codec
Format profile : [email protected]
Format settings, CABAC : Yes
Format settings, ReFrames : 9 frames
Codec ID : V_MPEG4/ISO/AVC
Duration : 2 h 3 min
Bit rate : 4 140 kb/s
Width : 1 280 pixels
Height : 694 pixels
Display aspect ratio : 1.85:1
Frame rate mode : Constant
Frame rate : 23.976 (23976/1000) FPS
Color space : YUV
Chroma subsampling : 4:2:0
Bit depth : 8 bits
Scan type : Progressive
Bits/(Pixel*Frame) : 0.194
Stream size : 3.56 GiB (71%)
Title : Enigma
Writing library : x264 core 152 r2851 ba24899
Encoding settings : cabac=1 / ref=9 / deblock=1:-2:-2 / analyse=0x3:0x113 / me=umh / subme=11 / psy=1 / psy_rd=1.03:0.06 / mixed_ref=1 / me_range=32 / chroma_me=1 / trellis=2 / 8x8dct=1 / cqm=0 / deadzone=21,11 / fast_pskip=1 / chroma_qp_offset=-3 / threads=12 / lookahead_threads=3 / sliced_threads=0 / nr=0 / decimate=1 / interlaced=0 / bluray_compat=0 / constrained_intra=0 / bframes=10 / b_pyramid=2 / b_adapt=2 / b_bias=0 / direct=1 / weightb=1 / open_gop=0 / weightp=2 / keyint=240 / keyint_min=23 / scenecut=40 / intra_refresh=0 / rc=crf / mbtree=0 / crf=19.0 / qcomp=0.60 / qpmin=0 / qpmax=51 / qpstep=4 / ip_ratio=1.40 / pb_ratio=1.30 / aq=1:1.00
Language : English
Default : Yes
Forced : No
Color range : Limited
Color primaries : BT.709
Transfer characteristics : BT.709
Matrix coefficients : BT.709

Audio #1
ID : 2
Format : AC-3
Format/Info : Audio Coding 3
Mode extension : CM (complete main)
Format settings, Endianness : Big
Codec ID : A_AC3
Duration : 2 h 3 min
Bit rate mode : Constant
Bit rate : 448 kb/s
Channel(s) : 6 channels
Channel positions : Front: L C R, Side: L R, LFE
Sampling rate : 48.0 kHz
Frame rate : 31.250 FPS (1536 spf)
Compression mode : Lossy
Stream size : 395 MiB (8%)
Title : MVO (HDRezka Studio) Censored
Language : Russian
Default : Yes
Forced : No

Audio #2
ID : 3
Format : AC-3
Format/Info : Audio Coding 3
Mode extension : CM (complete main)
Format settings, Endianness : Big
Codec ID : A_AC3
Duration : 2 h 3 min
Bit rate mode : Constant
Bit rate : 448 kb/s
Channel(s) : 6 channels
Channel positions : Front: L C R, Side: L R, LFE
Sampling rate : 48.0 kHz
Frame rate : 31.250 FPS (1536 spf)
Compression mode : Lossy
Stream size : 395 MiB (8%)
Title : MVO (HDRezka Studio) Uncensored
Language : Russian
Default : No
Forced : No

Audio #3
ID : 4
Format : AC-3
Format/Info : Audio Coding 3
Mode extension : CM (complete main)
Format settings, Endianness : Big
Codec ID : A_AC3
Duration : 2 h 3 min
Bit rate mode : Constant
Bit rate : 640 kb/s
Channel(s) : 6 channels
Channel positions : Front: L C R, Side: L R, LFE
Sampling rate : 48.0 kHz
Frame rate : 31.250 FPS (1536 spf)
Compression mode : Lossy
Stream size : 564 MiB (11%)
Title : Original
Language : English
Default : No
Forced : No

Text #1
ID : 5
Format : UTF-8
Codec ID : S_TEXT/UTF8
Codec ID/Info : UTF-8 Plain Text
Title : Forced
Language : Russian
Default : Yes
Forced : No

Text #2
ID : 6
Format : UTF-8
Codec ID : S_TEXT/UTF8
Codec ID/Info : UTF-8 Plain Text
Language : English
Default : No
Forced : No

Menu
00:00:00.000 : en:Chapter 01
00:10:37.554 : en:Chapter 02
00:15:19.418 : en:Chapter 03
00:24:02.983 : en:Chapter 04
00:32:55.182 : en:Chapter 05
00:41:56.180 : en:Chapter 06
00:47:04.071 : en:Chapter 07
00:55:31.119 : en:Chapter 08
01:03:51.369 : en:Chapter 09
01:12:44.193 : en:Chapter 10
01:19:51.787 : en:Chapter 11
01:29:15.016 : en:Chapter 12
01:35:39.776 : en:Chapter 13
01:42:10.374 : en:Chapter 14
01:45:06.217 : en:Chapter 15
01:54:08.383 : en:Chapter 16







Релиз от:

Автор релиза:
 

Вложения

  • 25,9 KB Просмотры: 0
    Личеров 0
    Сидеров 0
    Файлов 1
    Объем 5 GB

Привет!

Мы группа людей которые решили помочь другим в решении их проблем, а так же пользователям с поиском самых свежих и качественных инфопродуктов. За 4 с небольшим месяца мы создали этот форум на который заходят ежедневно тысячи человек и посещаемость постоянно растёт. Мы создали панель лицензирования для защиты PHP скриптов от воровства и SEO панель для мониторинга наших сайтов и выбора верной стратегии их развития. Мы надеемся что то что мы создали пригодится Вам и возможно Вы поможете нам развиваться и совершенствоваться вместе с Вами.

Статистика форума

Темы
406.605
Сообщения
465.025
Пользователи
84.383
Новый пользователь
wazice

Приложения форума для iOS и Android


У ркн там нет власти ;)
Приватные разговоры
Помощь Пользователи
    Вы не присоединились ни к одной комнате.