За последнюю неделю опубликовано 84 новых материалов.
Инструкция новичку Путеводитель по форуму Прокси для Telegram Показать подсказки , это бомба!

Скачать Формула 51 / The 51st State (2001) WEB-DLRip-AVC | D, P | Open Matte бесплатно через торрент

  • Поучаствуй (в качестве покупателя) в любых пяти совместных покупках (кроме завершённых и "Моментальных") и получи группу "Новичок" навсегда -> ссылка на раздел
  • Получай до 480 рублей за каждого приглашенного пользователя!
    представляем Вам очередное расширение партнерской программы, подробности описаны тут -> ссылка
  • 90% материалов доступно к скачиванию после простой регистрации!
    Если же ты хочешь скачивать материалы без требования оставлять отзывы то получи группу "Новичок", 10 способов повышения описаны тут -> ссылка
  • К сожалению количество битых ссылок растет и мы уже не можем их оперативно восстанавливать поэтому просим помощи у каждого нашего пользователя.
    С сегодняшнего дня, за каждую восстановленную ссылку мы заплатим Вам.
    Подробнее тут -> ссылка
  • Перенесем твои заслуги с другого ресурса!
    Мы понимаем как сложно прокачивать аккаунты на форумах, вроде раскачал аккаунт, а тут появляется ресурс в 100 раз круче но тоже с системой прокачки и снова качать аккаунт...
    Предлагаем вам перенести Ваши заслуги на другом подобном ресурсе к нам.
    Подробности описаны тут -> ссылка
  • Вы можете получать по 2.5% с каждой покупки и продажи на маркете! Подробности в теме Партнёрская программа
Если Вы не хотите скачивать, Вы всегда можетепосмотретьонлайн, просто нажмите кнопку ниже :

Открыть плеер

Torrent_Bot

Торрент-Бот
Бот форума
4 Окт 2016
104
152
20





Информация о фильме
Название: Формула 51
Оригинальное название: The 51st State
Год выхода: 2001
Жанр: Боевик, триллер, комедия, криминал
Режиссер: Ронни Ю
В ролях: Сэмюэл Л. Джексон, Роберт Карлайл, Найджел Уитми, Роберт Йезек, Эмили Мортимер, Мит Лоуф, Джэйк Абрахам, Мак МакДональд, Аарон Шварц, Дэвид Веббер, Шон Пертуи, Рис Иванс

О фильме:
Химик-фармацевт МакЭлрой изобрел новый супернаркотик и решил сорвать большой куш. Чтобы осуществить задуманное он отправляется в Ливерпуль. Его босс Ящер приказывает своей помощнице Дакоте убить МакЭлроя. Дакота хорошо знает Ливерпуль — родной город ее бывшего бойфренда Феликса ДеСоуза, невольного партнера МакЭлроя. А Ливерпуль уже «стоит на ушах». И хозяин ночного клуба Айки, и офицер полиции Кэйн, и мелкие гангстеры, и скинхеды — все хотят отщипнуть кусочек от бизнеса с чудо-наркотиком. А тем временем МакЭлрой и Феликс упорно ищут покупателя, готового отстегнуть им 20 миллионов. Но не предаст ли МакЭлроя Феликс? Все станет известно на главном футбольном матче года. Мы узнаем, кто кого подставил. Кому достался наркотик. Кого разорвало на миллионы кусочков. И кто сбежал в шотландский замок стоимостью в милионы долларов.



Страна: Великобритания, Канада
Студия: Alliance Atlantis, Focus Films, Fifty First Films
Продолжительность: 01:32:48
Перевод: Профессиональный (дублированный) + профессиональный (многоголосый, закадровый)
Субтитры: Russian, English

Файл
Формат: Matroska
Качество: WEB-DLRip-AVC | Open Matte | Amazon HBO
Видео: 1040x586 at 23.976 fps, x264, ~3500 kbps
Аудио #1: AC-3, 2 ch, 192 kbps (Rus) - Dub Мосфильм-Мастер
Аудио #2: AC-3, 6 ch, 384 kbps (Rus) - MVO
Формат субтитров: softsub (SRT)

***Релиз от:-=DoMiNo=-



M/I
x264 info: frame I:1116 Avg QP:17.33 size: 74037
x264 info: frame P:33412 Avg QP:18.44 size: 34476
x264 info: frame B:98973 Avg QP:20.65 size: 11795
x264 info: consecutive B-frames: 3.8% 4.6% 9.6% 32.8% 15.9% 23.5% 3.9% 3.9% 1.1% 0.2% 0.2% 0.2% 0.2%

General
Unique ID : 144567681467106233813151863336354878580 (0x6CC2B90115E3EBCD1220B252B40A9474)
Complete name : Формула 51.(2001).WEB-DLRip-AVC.O.M.[-=DoMiNo=-].mkv
Format : Matroska
Format version : Version 4
File size : 2.64 GiB
Duration : 1 h 32 min
Overall bit rate : 4 077 kb/s
Movie name : Формула 51
Deion : Химик-фармацевт МакЭлрой (Сэмюэл Л. Джексон) изобрел новый супернаркотик и решил сорвать большой куш. Чтобы осуществить задуманное, он отправляется в Ливерпуль. Его босс Ящер (Мит Лоуф) нанимает киллера Дакоту (Эмили Мортимер) убить отступника. Дакота хорошо знает Ливерпуль - родной город ее бывшего бойфренда Феликса ДеСуза, невольного партнера МакЭлрря. А Ливерпуль уже «стоит на ушах». И хозяин ночного клуба Ики (Риз Айфэнс), и офицер полиции Кэйн, и мелкие гангстеры, и скинхеды - все хотят отщипнуть кусочек от бизнеса с чудо-наркотиком...
Cover : Yes
Attachments : poster.jpg / cover.jpg
ACTORS : Samuel L. Jackson, Robert Carlyle, Emily Mortimer, Meat Loaf, Rhys Ifans, Sean Pertwee, Ricky Tomlinson, Michael Starke, Anna Keaveney, Paul Barber, Stephen Walters, Nigel Whitmey, Mac McDonald, Michael J. Reynolds, Junix Inocian, Jake Abraham, Aaron Swartz, David Webber, Nick Bartlett, Angus MacInnes, Robert Fyfe, Robert Jezek, Joan Campion, Terry O'Neill, Marc Anwar, Paul Broughton, Sonny Muslim, Barbara Barnes, Christopher Hunter, James Roach, Ade
COUNTRY : Canada, United Kingdom
DATE : 2001-12-07
DIRECTOR : Ronny Yu
GENRE : триллер, боевик, комедия, криминал
ORIGINAL_TITLE : The 51st State
PRODUCER : Malcolm Kohll, Seaton McLean, David Pupkewitz
PUBLISHER : The Film Consortium, Alliance Atlantis Communications, Momentum Films, National Lottery, Fifty First Films, Artists Production Group (APG), Canadian Film or Video Production Tax Credit Fund (CPTC), Film Council, Focus Features
RATING : 6.20
WRITER : Stel Pavlou

Video
ID : 1
Format : AVC
Format/Info : Advanced Video Codec
Format profile : High@L4.1
Format settings : CABAC / 12 Ref Frames
Format settings, CABAC : Yes
Format settings, Reference : 12 frames
Codec ID : V_MPEG4/ISO/AVC
Duration : 1 h 32 min
Bit rate : 3 500 kb/s
Width : 1 040 pixels
Height : 586 pixels
Display aspect ratio : 16:9
Frame rate mode : Constant
Frame rate : 23.976 (24000/1001) FPS
Color space : YUV
Chroma subsampling : 4:2:0
Bit depth : 8 bits
Scan type : Progressive
Bits/(Pixel*Frame) : 0.240
Stream size : 2.22 GiB (84%)
Title : RIP_BY_-=DoMiNo=-
Writing library : x264 core 157 r2969 d4099dd
Encoding settings : cabac=1 / ref=12 / deblock=1:-3:-3 / analyse=0x3:0x133 / me=umh / subme=11 / psy=1 / psy_rd=1.00:0.25 / mixed_ref=1 / me_range=32 / chroma_me=1 / trellis=2 / 8x8dct=1 / cqm=0 / deadzone=21,11 / fast_pskip=0 / chroma_qp_offset=-4 / threads=6 / lookahead_threads=1 / sliced_threads=0 / nr=0 / decimate=0 / interlaced=0 / bluray_compat=0 / constrained_intra=0 / bframes=12 / b_pyramid=2 / b_adapt=2 / b_bias=0 / direct=3 / weightb=1 / open_gop=0 / weightp=2 / keyint=250 / keyint_min=23 / scenecut=40 / intra_refresh=0 / rc=2pass / mbtree=0 / bitrate=3500 / ratetol=1.0 / qcomp=0.80 / qpmin=0 / qpmax=69 / qpstep=4 / cplxblur=20.0 / qblur=0.5 / ip_ratio=1.40 / pb_ratio=1.30 / aq=3:0.65
Language : English
Default : Yes
Forced : No
Color range : Limited
Color primaries : BT.709
Transfer characteristics : BT.709
Matrix coefficients : BT.709

Audio #1
ID : 2
Format : AC-3
Format/Info : Audio Coding 3
Commercial name : Dolby Digital
Codec ID : A_AC3
Duration : 1 h 32 min
Bit rate mode : Constant
Bit rate : 192 kb/s
Channel(s) : 2 channels
Channel layout : L R
Sampling rate : 48.0 kHz
Frame rate : 31.250 FPS (1536 SPF)
Bit depth : 16 bits
Compression mode : Lossy
Stream size : 128 MiB (5%)
Title : DUB
Language : Russian
Service kind : Complete Main
Default : Yes
Forced : No

Audio #2
ID : 3
Format : AC-3
Format/Info : Audio Coding 3
Commercial name : Dolby Digital
Codec ID : A_AC3
Duration : 1 h 32 min
Bit rate mode : Constant
Bit rate : 384 kb/s
Channel(s) : 6 channels
Channel layout : L R C LFE Ls Rs
Sampling rate : 48.0 kHz
Frame rate : 31.250 FPS (1536 SPF)
Bit depth : 16 bits
Compression mode : Lossy
Stream size : 255 MiB (9%)
Title : MVO
Language : Russian
Service kind : Complete Main
Default : No
Forced : No

Text #1
ID : 4
Format : UTF-8
Codec ID : S_TEXT/UTF8
Codec ID/Info : UTF-8 Plain Text
Title : RUS
Language : Russian
Default : Yes
Forced : No

Text #2
ID : 5
Format : UTF-8
Codec ID : S_TEXT/UTF8
Codec ID/Info : UTF-8 Plain Text
Title : ENG
Language : English
Default : No
Forced : No

Text #3
ID : 6
Format : UTF-8
Codec ID : S_TEXT/UTF8
Codec ID/Info : UTF-8 Plain Text
Title : SDH, Amazon
Language : English
Default : No
Forced : No

Menu
00:00:00.000 : :00:00:00.000
00:12:25.745 : :00:12:25.745
00:26:27.795 : :00:26:27.795
00:42:31.758 : :00:42:31.758
00:56:35.809 : :00:56:35.809
01:09:10.438 : :01:09:10.438
01:18:18.402 : :01:18:18.402
01:28:15.165 : :01:28:15.165
Скриншоты

 

Вложения

  • 14,2 KB Просмотры: 1
    Личеров 0
    Сидеров 0
    Файлов 1
    Объем 2,6 GB

Привет!

Мы группа людей которые решили помочь другим в решении их проблем, а так же пользователям с поиском самых свежих и качественных инфопродуктов. За 4 с небольшим месяца мы создали этот форум на который заходят ежедневно тысячи человек и посещаемость постоянно растёт. Мы создали панель лицензирования для защиты PHP скриптов от воровства и SEO панель для мониторинга наших сайтов и выбора верной стратегии их развития. Мы надеемся что то что мы создали пригодится Вам и возможно Вы поможете нам развиваться и совершенствоваться вместе с Вами.

Статистика форума

Темы
404.550
Сообщения
461.466
Пользователи
80.111
Новый пользователь
dapohui

Приложения форума для iOS и Android


У ркн там нет власти ;)
Приватные разговоры
Помощь Пользователи
    Вы не присоединились ни к одной комнате.