За последнюю неделю опубликовано 52 новых материалов.
Инструкция новичку Путеводитель по форуму Прокси для Telegram Показать подсказки , это бомба!

Скачать Формула 51 / The 51st State (2001) BDRip-AVC | P бесплатно через торрент

  • Поучаствуй (в качестве покупателя) в любых пяти совместных покупках (кроме завершённых и "Моментальных") и получи группу "Новичок" навсегда -> ссылка на раздел
  • Получай до 480 рублей за каждого приглашенного пользователя!
    представляем Вам очередное расширение партнерской программы, подробности описаны тут -> ссылка
  • 90% материалов доступно к скачиванию после простой регистрации!
    Если же ты хочешь скачивать материалы без требования оставлять отзывы то получи группу "Новичок", 10 способов повышения описаны тут -> ссылка
  • К сожалению количество битых ссылок растет и мы уже не можем их оперативно восстанавливать поэтому просим помощи у каждого нашего пользователя.
    С сегодняшнего дня, за каждую восстановленную ссылку мы заплатим Вам.
    Подробнее тут -> ссылка
  • Перенесем твои заслуги с другого ресурса!
    Мы понимаем как сложно прокачивать аккаунты на форумах, вроде раскачал аккаунт, а тут появляется ресурс в 100 раз круче но тоже с системой прокачки и снова качать аккаунт...
    Предлагаем вам перенести Ваши заслуги на другом подобном ресурсе к нам.
    Подробности описаны тут -> ссылка
  • Вы можете получать по 2.5% с каждой покупки и продажи на маркете! Подробности в теме Партнёрская программа
Если Вы не хотите скачивать, Вы всегда можетепосмотретьонлайн, просто нажмите кнопку ниже :

Открыть плеер

Torrent_Bot

Торрент-Бот
Бот форума
4 Окт 2016
91
163
20



Информация о фильме
Название: Формула 51
Оригинальное название: The 51st State
Год выхода: 2001
Жанр: Боевик, триллер, комедия, криминал
Режиссер: Ронни Ю
В ролях: Сэмюэл Л. Джексон, Роберт Карлайл, Найджел Уитми, Роберт Йезек, Эмили Мортимер, Мит Лоуф, Джэйк Абрахам, Мак МакДональд, Аарон Шварц, Дэвид Веббер, Шон Пертуи, Рис Иванс

О фильме:
Химик-фармацевт МакЭлрой изобрел новый супернаркотик и решил сорвать большой куш. Чтобы осуществить задуманное он отправляется в Ливерпуль. Его босс Ящер приказывает своей помощнице Дакоте убить МакЭлроя. Дакота хорошо знает Ливерпуль — родной город ее бывшего бойфренда Феликса ДеСоуза, невольного партнера МакЭлроя. А Ливерпуль уже «стоит на ушах». И хозяин ночного клуба Айки, и офицер полиции Кэйн, и мелкие гангстеры, и скинхеды — все хотят отщипнуть кусочек от бизнеса с чудо-наркотиком. А тем временем МакЭлрой и Феликс упорно ищут покупателя, готового отстегнуть им 20 миллионов. Но не предаст ли МакЭлроя Феликс? Все станет известно на главном футбольном матче года. Мы узнаем, кто кого подставил. Кому достался наркотик. Кого разорвало на миллионы кусочков. И кто сбежал в шотландский замок стоимостью в милионы долларов.



Страна: Великобритания, Канада
Студия: Alliance Atlantis, Focus Films, Fifty First Films
Продолжительность: 01:32:22
Перевод: Профессиональный (многоголосый закадровый) + Оригинал

Файл
Кодек: x.264
Качество: BDRip-AVC | исх. BDRemux 1080р
Видео: h264 / 2450 kbps / 1024x440 / 23,976 fps
Аудио 1: 48 kHz / 6 ch / 384 kbps | Профессиональный (многоголосый закадровый)
Аудио 2: 48 kHz / 6 ch / 384 kbps | Оригинал
Субтитры: Русские, Английские

Релиз от: Alukard14

log
x264 [info]: frame I:2378 Avg QP:20.44 size: 49631
x264 [info]: frame P:17923 Avg QP:22.92 size: 24951
x264 [info]: frame B:112580 Avg QP:24.31 size: 10021
x264 [info]: consecutive B-frames: 5.9% 0.4% 0.7% 0.7% 1.4% 0.9% 1.1% 1.7% 1.3% 1.4% 84.5%
x264 [info]: mb I I16..4: 14.4% 73.9% 11.7%
x264 [info]: mb P I16..4: 1.1% 17.8% 1.8% P16..4: 30.5% 35.8% 10.0% 0.0% 0.0% skip: 3.0%
x264 [info]: mb B I16..4: 0.1% 1.4% 0.2% B16..8: 40.5% 22.2% 3.5% direct: 7.7% skip:24.5% L0:45.7% L1:45.5% BI: 8.8%
x264 [info]: 8x8 transform intra:82.2% inter:56.9%
x264 [info]: direct mvs spatial:99.3% temporal:0.7%
x264 [info]: coded y,uvDC,uvAC intra: 92.5% 71.6% 36.7% inter: 36.7% 19.4% 2.4%
x264 [info]: i16 v,h,dc,p: 16% 14% 22% 48%
x264 [info]: i8 v,h,dc,ddl,ddr,vr,hd,vl,hu: 11% 7% 9% 10% 13% 14% 12% 12% 12%
x264 [info]: i4 v,h,dc,ddl,ddr,vr,hd,vl,hu: 14% 9% 5% 9% 14% 15% 12% 12% 11%
x264 [info]: i8c dc,h,v,p: 33% 32% 20% 16%
x264 [info]: Weighted P-Frames: Y:8.0% UV:2.0%
x264 [info]: ref P L0: 43.3% 10.6% 19.4% 7.3% 5.9% 3.9% 3.4% 1.7% 1.6% 1.2% 1.2% 0.4% 0.0%
x264 [info]: ref B L0: 72.3% 13.0% 5.9% 2.9% 2.0% 1.6% 1.2% 0.7% 0.3% 0.1%
x264 [info]: ref B L1: 90.5% 9.5%
x264 [info]: kb/s:2444.39
MediaInfo
Общее
Уникальный идентификатор : 213938044768951140263773878582261333190 (0xA0F2F7FA85BA0FF0B41BE5EF39343CC6)
Полное имя : E:TestThe.51.st.State.2001.BDRip-AVC.by.Alukard14.mkv
Формат : Matroska
Версия формата : Version 2
Размер файла : 2,07 Гбайт
Продолжительность : 1 ч. 32 м.
Общий поток : 3211 Кбит/сек
Дата кодирования : UTC 2019-06-08 12:09:50
Программа кодирования : mkvmerge v4.1.1 ('Bouncin' Back') сборка от Jul 3 2010 22:54:08
Библиотека кодирования : libebml v1.0.0 + libmatroska v1.0.0

Видео
Идентификатор : 1
Формат : AVC
Формат/Информация : Advanced Video Codec
Профиль формата : [email protected]
Настройки формата : CABAC / 11 Ref Frames
Параметр CABAC формата : Да
Параметр RefFrames формата : 11 кадров
Идентификатор кодека : V_MPEG4/ISO/AVC
Продолжительность : 1 ч. 32 м.
Битрейт : 2450 Кбит/сек
Ширина : 1024 пикселя
Высота : 440 пикселей
Соотношение сторон : 2,35:1
Режим частоты кадров : Постоянный
Частота кадров : 23,976 кадра/сек
Цветовое пространство : YUV
Субдискретизация насыщенности : 4:2:0
Битовая глубина : 8 бит
Тип развёртки : Прогрессивная
Бит/(Пиксели*Кадры) : 0.227
Размер потока : 1,54 Гбайт (74%)
Библиотека кодирования : x264 core 148 r2638 7599210
Настройки программы : cabac=1 / ref=11 / deblock=1:-3:-3 / analyse=0x3:0x113 / me=umh / subme=11 / psy=1 / psy_rd=1.00:0.50 / mixed_ref=1 / me_range=48 / chroma_me=1 / trellis=2 / 8x8dct=1 / cqm=0 / deadzone=21,11 / fast_pskip=0 / chroma_qp_offset=-4 / threads=9 / lookahead_threads=1 / sliced_threads=0 / nr=0 / decimate=0 / interlaced=0 / bluray_compat=0 / constrained_intra=0 / bframes=10 / b_pyramid=2 / b_adapt=0 / b_bias=0 / direct=3 / weightb=1 / open_gop=0 / weightp=2 / keyint=240 / keyint_min=24 / scenecut=40 / intra_refresh=0 / rc_lookahead=40 / rc=2pass / mbtree=0 / bitrate=2450 / ratetol=1.0 / qcomp=0.60 / qpmin=0 / qpmax=69 / qpstep=2 / cplxblur=20.0 / qblur=0.5 / vbv_maxrate=14000 / vbv_bufsize=14000 / nal_hrd=none / filler=0 / ip_ratio=1.40 / pb_ratio=1.30 / aq=1:1.00
Default : Да
Forced : Нет

Аудио #1
Идентификатор : 2
Формат : AC-3
Формат/Информация : Audio Coding 3
Режим смешивания : Header stripping
Идентификатор кодека : A_AC3
Продолжительность : 1 ч. 32 м.
Вид битрейта : Постоянный
Битрейт : 384 Кбит/сек
Каналы : 6 каналов
Расположение каналов : Front: L C R, Side: L R, LFE
Частота : 48,0 КГц
Частота кадров : 31,250 кадров/сек (1536 SPF)
Битовая глубина : 16 бит
Метод сжатия : С потерями
Размер потока : 254 Мбайт (12%)
Default : Да
Forced : Нет

Аудио #2
Идентификатор : 3
Формат : AC-3
Формат/Информация : Audio Coding 3
Режим смешивания : Header stripping
Идентификатор кодека : A_AC3
Продолжительность : 1 ч. 32 м.
Вид битрейта : Постоянный
Битрейт : 384 Кбит/сек
Каналы : 6 каналов
Расположение каналов : Front: L C R, Side: L R, LFE
Частота : 48,0 КГц
Частота кадров : 31,250 кадров/сек (1536 SPF)
Битовая глубина : 16 бит
Метод сжатия : С потерями
Размер потока : 254 Мбайт (12%)
Default : Нет
Forced : Нет

Текст #1
Идентификатор : 4
Формат : UTF-8
Идентификатор кодека : S_TEXT/UTF8
Идентификатор кодека/Информация : UTF-8 Plain Text
Заголовок : Full
Язык : Russian
Default : Нет
Forced : Нет

Текст #2
Идентификатор : 5
Формат : UTF-8
Идентификатор кодека : S_TEXT/UTF8
Идентификатор кодека/Информация : UTF-8 Plain Text
Заголовок : Full
Язык : English
Default : Нет
Forced : Нет
Statistics Tags Issue : mkvmerge v21.0.0 ('Tardigrades Will Inherit The Earth') 64-bit 2018-03-16 11:47:50 / mkvmerge v4.1.1 ('Bouncin' Back') сборка от Jul 3 2010 22:54:08 2019-06-08 12:09:50
FromStats_BitRate : 60
FromStats_Duration : 01:31:56.371000000
FromStats_FrameCount : 1291
FromStats_StreamSize : 41518

Меню
00:00:00.000 : en:Chapter 1
00:12:25.745 : en:Chapter 2
00:26:27.794 : en:Chapter 3
00:42:31.757 : en:Chapter 4
00:56:35.809 : en:Chapter 5
01:09:10.437 : en:Chapter 6
01:18:18.402 : en:Chapter 7
01:28:15.164 : en:Chapter 8
Скриншоты
 

Вложения

  • 11,3 KB Просмотры: 1
    Личеров 0
    Сидеров 0
    Файлов 1
    Объем 2,1 GB

Привет!

Мы группа людей которые решили помочь другим в решении их проблем, а так же пользователям с поиском самых свежих и качественных инфопродуктов. За 4 с небольшим месяца мы создали этот форум на который заходят ежедневно тысячи человек и посещаемость постоянно растёт. Мы создали панель лицензирования для защиты PHP скриптов от воровства и SEO панель для мониторинга наших сайтов и выбора верной стратегии их развития. Мы надеемся что то что мы создали пригодится Вам и возможно Вы поможете нам развиваться и совершенствоваться вместе с Вами.

Статистика форума

Темы
410.533
Сообщения
469.088
Пользователи
86.009
Новый пользователь
flyspy

Приложения форума для iOS и Android


У ркн там нет власти ;)
Приватные разговоры
Помощь Пользователи
    Вы не присоединились ни к одной комнате.