За последнюю неделю опубликовано 72 новых материалов.
Инструкция новичку Путеводитель по форуму Прокси для Telegram Показать подсказки , это бомба!

Скачать Форма воды / The Shape of Water (2017) BDRemux 1080p от ExKinoRay | iTunes бесплатно через торрент

  • Поучаствуй (в качестве покупателя) в любых пяти совместных покупках (кроме завершённых и "Моментальных") и получи группу "Новичок" навсегда -> ссылка на раздел
  • Получай до 480 рублей за каждого приглашенного пользователя!
    представляем Вам очередное расширение партнерской программы, подробности описаны тут -> ссылка
  • 90% материалов доступно к скачиванию после простой регистрации!
    Если же ты хочешь скачивать материалы без требования оставлять отзывы то получи группу "Новичок", 10 способов повышения описаны тут -> ссылка
  • К сожалению количество битых ссылок растет и мы уже не можем их оперативно восстанавливать поэтому просим помощи у каждого нашего пользователя.
    С сегодняшнего дня, за каждую восстановленную ссылку мы заплатим Вам.
    Подробнее тут -> ссылка
  • Перенесем твои заслуги с другого ресурса!
    Мы понимаем как сложно прокачивать аккаунты на форумах, вроде раскачал аккаунт, а тут появляется ресурс в 100 раз круче но тоже с системой прокачки и снова качать аккаунт...
    Предлагаем вам перенести Ваши заслуги на другом подобном ресурсе к нам.
    Подробности описаны тут -> ссылка
  • Вы можете получать по 2.5% с каждой покупки и продажи на маркете! Подробности в теме Партнёрская программа
Если Вы не хотите скачивать, Вы всегда можетепосмотретьонлайн, просто нажмите кнопку ниже :

Открыть плеер

Torrent_Bot

Торрент-Бот
Бот форума
4 Окт 2016
82
186
20
a78cbb9101bbcc8d9881f2c1c19ad584.jpg

Информация о фильме
Название: Форма воды
Оригинальное название: The Shape of Water
Год выхода: 2017
Жанр: Фэнтези, драма, приключения
Режиссер: Гильермо Дель Торо
В ролях: Салли Хокинс, Майкл Шеннон, Ричард Дженкинс, Октавия Спенсер, Майкл Стулбарг, Даг Джонс, Дэвид Хьюлетт, Ник Сирси, Стюарт Арнотт, Найджел Беннетт


3129ee0fba4ef1ada65dc26c7a0d4140.gif

О фильме:
Действие разворачивается в 1963 году. Главная героиня — немая уборщица в научной лаборатории. В стенах секретного учреждения идёт работа по изучению отловленного человека-амфибии. Женщина влюбляется в мутанта и помогает ему бежать…


Страна: Канада, США
Студия: Fox Searchlight Pictures
Продолжительность: 02:03:19
Перевод: Дублированный | iTunes

Качество: BDRemux 1080p
Видео: MPEG-4 AVC, 1920x1080, 27.4 Mbit/s, 23.976 fps
Звук:
Аудио #01: 48 kHz, AC3, 5.1, 384 Kbps | Дублированный | iTunes | RUS |
Аудио #02: 48 kHz, AC3, 2.0, 224 Kbps | Дублированный | iTunes | UKR |
Аудио #03: 48 kHz, DTS-HD MA, 5.1, 3840 Kbps | Оригинал | ENG |
Субтитры: Русские (forced, full), украинские (forced, full), английские

41d535bfbe62ed9805a2995dd8bdf1ad.pngea7f7daa398cfb83c53bf05af41ff07c.png946c90ce1e2a8af10e84faad81f03a5e.pnga575320cca889ae7df46a5bf09684b2a.png728bdab33af3a049983e98f508e70f20.png

MI
General
Unique ID : 112978471915662497754612115933270567013 (0x54FEDCBA0396BD2958C88BDA431AE865)
Complete name : C:Video111The.Shape.of.Water.2017.BDREMUX.1080p.ExKinoRay.mkv
Format : Matroska
Format version : Version 4 / Version 2
File size : 27.4 GiB
Duration : 2 h 3 min
Overall bit rate mode : Variable
Overall bit rate : 31.8 Mb/s
Movie name : The Shape of Water 2017 from ExKinoRay
Encoded date : UTC 2018-03-06 19:54:23
Writing application : mkvmerge v21.0.0 ('Tardigrades Will Inherit The Earth') 64-bit
Writing library : libebml v1.3.5 + libmatroska v1.4.8

Video
ID : 1
Format : AVC
Format/Info : Advanced Video Codec
Format profile : [email protected]
Format settings : CABAC / 4 Ref Frames
Format settings, CABAC : Yes
Format settings, ReFrames : 4 frames
Codec ID : V_MPEG4/ISO/AVC
Duration : 2 h 3 min
Bit rate mode : Variable
Bit rate : 27.4 Mb/s
Maximum bit rate : 34.2 Mb/s
Width : 1 920 pixels
Height : 1 080 pixels
Display aspect ratio : 16:9
Frame rate mode : Constant
Frame rate : 23.976 (24000/1001) FPS
Color space : YUV
Chroma subsampling : 4:2:0
Bit depth : 8 bits
Scan type : Progressive
Bits/(Pixel*Frame) : 0.551
Stream size : 23.6 GiB (86%)
Language : English
Default : Yes
Forced : No

Audio #1
ID : 2
Format : AC-3
Format/Info : Audio Coding 3
Codec ID : A_AC3
Duration : 2 h 3 min
Bit rate mode : Constant
Bit rate : 384 kb/s
Channel(s) : 6 channels
Channel positions : Front: L C R, Side: L R, LFE
Sampling rate : 48.0 kHz
Frame rate : 31.250 FPS (1536 SPF)
Bit depth : 16 bits
Compression mode : Lossy
Stream size : 339 MiB (1%)
Title : iTunes
Language : Russian
Service kind : Complete Main
Default : Yes
Forced : No

Audio #2
ID : 3
Format : AC-3
Format/Info : Audio Coding 3
Codec ID : A_AC3
Duration : 2 h 3 min
Bit rate mode : Constant
Bit rate : 224 kb/s
Channel(s) : 2 channels
Channel positions : Front: L R
Sampling rate : 48.0 kHz
Frame rate : 31.250 FPS (1536 SPF)
Bit depth : 16 bits
Compression mode : Lossy
Stream size : 198 MiB (1%)
Title : iTunes
Language : Ukrainian
Service kind : Complete Main
Default : No
Forced : No

Audio #3
ID : 4
Format : DTS
Format/Info : Digital Theater Systems
Format profile : MA / Core
Codec ID : A_DTS
Duration : 2 h 3 min
Bit rate mode : Variable / Constant
Bit rate : 3 840 kb/s / 1 509 kb/s
Channel(s) : 6 channels
Channel positions : Front: L C R, Side: L R, LFE
Sampling rate : 48.0 kHz
Frame rate : 93.750 FPS (512 SPF)
Bit depth : 24 bits
Compression mode : Lossless / Lossy
Stream size : 3.30 GiB (12%)
Title : Original
Language : English
Default : No
Forced : No

Text #1
ID : 5
Format : UTF-8
Codec ID : S_TEXT/UTF8
Codec ID/Info : UTF-8 Plain Text
Duration : 1 h 58 min
Bit rate : 1 b/s
Count of elements : 61
Stream size : 1.38 KiB (0%)
Title : forced [iTunes]
Language : Russian
Default : Yes
Forced : Yes

Text #2
ID : 6
Format : UTF-8
Codec ID : S_TEXT/UTF8
Codec ID/Info : UTF-8 Plain Text
Duration : 2 h 1 min
Bit rate : 69 b/s
Count of elements : 1264
Stream size : 61.8 KiB (0%)
Title : full [iTunes]
Language : Russian
Default : No
Forced : No

Text #3
ID : 7
Format : UTF-8
Codec ID : S_TEXT/UTF8
Codec ID/Info : UTF-8 Plain Text
Duration : 1 h 47 min
Bit rate : 5 b/s
Count of elements : 167
Stream size : 4.49 KiB (0%)
Title : forced
Language : Ukrainian
Default : No
Forced : No

Text #4
ID : 8
Format : UTF-8
Codec ID : S_TEXT/UTF8
Codec ID/Info : UTF-8 Plain Text
Duration : 2 h 1 min
Bit rate : 71 b/s
Count of elements : 1398
Stream size : 64.1 KiB (0%)
Title : full
Language : Ukrainian
Default : No
Forced : No

Text #5
ID : 9
Format : UTF-8
Codec ID : S_TEXT/UTF8
Codec ID/Info : UTF-8 Plain Text
Duration : 1 h 57 min
Bit rate : 67 b/s
Count of elements : 1016
Stream size : 58.2 KiB (0%)
Title : Full v.2 (focs)
Language : Russian
Default : No
Forced : No

Text #6
ID : 10
Format : UTF-8
Codec ID : S_TEXT/UTF8
Codec ID/Info : UTF-8 Plain Text
Duration : 1 h 47 min
Bit rate : 3 b/s
Count of elements : 169
Stream size : 2.51 KiB (0%)
Title : Forced
Language : English
Default : No
Forced : No

Text #7
ID : 11
Format : UTF-8
Codec ID : S_TEXT/UTF8
Codec ID/Info : UTF-8 Plain Text
Duration : 1 h 56 min
Bit rate : 43 b/s
Count of elements : 1307
Stream size : 36.8 KiB (0%)
Title : Full
Language : English
Default : No
Forced : No

Text #8
ID : 12
Format : UTF-8
Codec ID : S_TEXT/UTF8
Codec ID/Info : UTF-8 Plain Text
Duration : 2 h 2 min
Bit rate : 56 b/s
Count of elements : 1925
Stream size : 51.3 KiB (0%)
Title : SDH
Language : English
Default : No
Forced : No

Menu
00:00:00.000 : en:00:00:00.000
00:06:24.467 : en:00:06:24.467
00:12:54.774 : en:00:12:54.774
00:18:32.987 : en:00:18:32.987
00:23:45.591 : en:00:23:45.591
00:29:39.653 : en:00:29:39.653
00:35:29.836 : en:00:35:29.836
00:39:30.535 : en:00:39:30.535
00:42:42.435 : en:00:42:42.435
00:48:34.036 : en:00:48:34.036
00:52:26.935 : en:00:52:26.935
00:57:30.197 : en:00:57:30.197
01:01:52.542 : en:01:01:52.542
01:07:35.551 : en:01:07:35.551
01:12:13.496 : en:01:12:13.496
01:17:50.791 : en:01:17:50.791
01:21:17.122 : en:01:21:17.122
01:26:05.911 : en:01:26:05.911
01:32:48.480 : en:01:32:48.480
01:37:18.750 : en:01:37:18.750
01:43:24.115 : en:01:43:24.115
01:46:06.610 : en:01:46:06.610
01:50:31.667 : en:01:50:31.667
01:58:34.858 : en:01:58:34.858

Релиз от: 784e0fca936493fe2f2fa3ae77066cd7.gifАвтор релиза: c2188032d3d185965321dd042c73d7ef.gif
Подпишись на меня, кликни по картинке > : e27548d632e237907e347729ce16b142.gif
 

Вложения

Привет!

Мы группа людей которые решили помочь другим в решении их проблем, а так же пользователям с поиском самых свежих и качественных инфопродуктов. За 4 с небольшим месяца мы создали этот форум на который заходят ежедневно тысячи человек и посещаемость постоянно растёт. Мы создали панель лицензирования для защиты PHP скриптов от воровства и SEO панель для мониторинга наших сайтов и выбора верной стратегии их развития. Мы надеемся что то что мы создали пригодится Вам и возможно Вы поможете нам развиваться и совершенствоваться вместе с Вами.

Статистика форума

Темы
412.120
Сообщения
471.113
Пользователи
91.431
Новый пользователь
turbulence

Приложения форума для iOS и Android


У ркн там нет власти ;)
Приватные разговоры
Помощь Пользователи
    Вы не присоединились ни к одной комнате.