За последнюю неделю опубликовано 122 новых материалов.
Инструкция новичку Путеводитель по форуму Прокси для Telegram Показать подсказки , это бомба!

Скачать Флотская коллекция / Kantai Collection: KanColle [S01] (2015) BDRip от Deadmauvlad | L2 | SHIZA бесплатно через торрент

  • Поучаствуй (в качестве покупателя) в любых пяти совместных покупках (кроме завершённых и "Моментальных") и получи группу "Новичок" навсегда -> ссылка на раздел
  • Получай до 480 рублей за каждого приглашенного пользователя!
    представляем Вам очередное расширение партнерской программы, подробности описаны тут -> ссылка
  • 90% материалов доступно к скачиванию после простой регистрации!
    Если же ты хочешь скачивать материалы без требования оставлять отзывы то получи группу "Новичок", 10 способов повышения описаны тут -> ссылка
  • К сожалению количество битых ссылок растет и мы уже не можем их оперативно восстанавливать поэтому просим помощи у каждого нашего пользователя.
    С сегодняшнего дня, за каждую восстановленную ссылку мы заплатим Вам.
    Подробнее тут -> ссылка
  • Перенесем твои заслуги с другого ресурса!
    Мы понимаем как сложно прокачивать аккаунты на форумах, вроде раскачал аккаунт, а тут появляется ресурс в 100 раз круче но тоже с системой прокачки и снова качать аккаунт...
    Предлагаем вам перенести Ваши заслуги на другом подобном ресурсе к нам.
    Подробности описаны тут -> ссылка
  • Вы можете получать по 2.5% с каждой покупки и продажи на маркете! Подробности в теме Партнёрская программа

Torrent_Bot

Торрент-Бот
Бот форума
4 Окт 2016
124
96
20


Название: Флотская коллекция
Оригинальное название: Kantai Collection: KanColle
Год выхода: 2015
Жанр: фантастика, приключения
Тип: TV
Выпуск: с 8 января 2015 по 26 марта 2015
Трансляция: четверг в 01:05 [ночной сеанс] на Tokyo MX TV
Режиссер: Кусакава Кэйдзо
Автор оригинала: Танака Кэнсукэ

О фильме: Зловещие живые корабли явились из неведомых глубин и быстро захватили земные моря-океаны. ВМФ ведущих держав был уничтожен Глубинниками, и что теперь делать бедной островной Японии? На помощь пришли неприкаянные духи кораблей Императорского флота (бесчестно уничтоженных варварами-гайдзинами), которые стали вселяться… конечно же, в симпатичных школьниц! Всё по делу: если девица статная и фигуристая, быть ей линкором или авианосцем, а коли мелкая и шебутная – хватит и подводной лодки. Властям осталось лишь отыскать одаренных, построить школы и военно-морские базы – а дальше все в воле Аматэрасу!

И вот девицы-красавицы рассекают морскую гладь на мобильных платформах, сражаясь тем, что дает им перерождение. Например, у линкора пуля из ручного оружия превращается в 15-дюймовый снаряд, а стрела авианосца на лету оборачивается звеном палубных истребителей. Главная героиня, симпатичная, но неуклюжая Фубуки – эсминец, включенная в Третий торпедный отряд. Девушке предстоит немало потрудиться, равняясь на подруг и признанных лидеров, прежде чем сбудется ее мечта – совместные походы с авианосцем Акаги из Первого флота. Что ж, как говорят в Третьем торпедном: служи, салага, а там ночь покажет!



Возрастное ограничение: 14+
Страна: Япония
Студия: Diomedea (Studio Barcelona)
Продолжительность: 12 серий x ~ 00:25:00
Перевод : Любительская Двухголосый закадровый Aska & Oni (SHIZA)

Файл
Качество: BDRip [Исходник: Blu-Ray Remux by antiBILLotic]
Формат видео: AVI / XviD
Видео: 720x400 (16:9), 23.976 fps, 1 606 kb/s (0.233 bit/pixel)
Аудио №1: AC-3, 48.0 kHz, 2 ch, 192 kb/s, CBR | | SHIZA
Аудио №2: AC-3, 48.0 kHz, 2 ch, 192 kb/s, CBR | | Japan (Оригинал)
Русские Субтитры: Есть

Хронология
#1 >>>KanColle - ТВ (12 эп.), адаптация игры, 2015
#2 Gekijouban KanColle - п/ф, адаптация игры, 2016

Bonus содержит:
Оригинальные Опенинг и Эндинг без титров

MediaInfo
General
Complete name : [Deadmau- RAWS] Kantai.Collection.KanColle.2015.S01.RUS.JAP.BDRip.Deadmauvlad.Ep.01.avi
Format : AVI
Format/Info : Audio Video Interleave
File size : 354 MiB
Duration : 24 min 41 s
Overall bit rate : 2 004 kb/s
Movie name : [Deadmau- RAWS] Флотская.коллекция.2015.S01.RUS.JAP.BDRip.Deadmauvlad.Эпизод.01
Director : Encoder by Deadmauvlad
Genre : приключения, фантастика
Writing application : VirtualDubMod 1.5.10.3 | www.virtualdub-fr.org || (build 2550/release)
Original source form/Name : Аниме
Copyright : Encoder by Deadmauvlad
Comment : Encoder by Deadmauvlad

Video
ID : 0
Format : MPEG-4 Visual
Format profile : Advanced Simple@L5
Format settings : BVOP1 / Custom Matrix
Format settings, BVOP : 1
Format settings, QPel : No
Format settings, GMC : No warppoints
Format settings, Matrix : Custom
Codec ID : XVID
Codec ID/Hint : XviD
Duration : 24 min 41 s
Bit rate : 1 606 kb/s
Width : 720 pixels
Height : 400 pixels
Display aspect ratio : 16:9
Frame rate : 23.976 (24000/1001) FPS
Color space : YUV
Chroma subsampling : 4:2:0
Bit depth : 8 bits
Scan type : Progressive
Compression mode : Lossy
Bits/(Pixel*Frame) : 0.233
Stream size : 283 MiB (80%)
Writing library : XviD 73

Audio #1
ID : 1
Format : AC-3
Format/Info : Audio Coding 3
Commercial name : Dolby Digital
Codec ID : 2000
Duration : 24 min 40 s
Bit rate mode : Constant
Bit rate : 192 kb/s
Channel(s) : 2 channels
Channel layout : L R
Sampling rate : 48.0 kHz
Frame rate : 31.250 FPS (1536 SPF)
Bit depth : 16 bits
Compression mode : Lossy
Stream size : 33.9 MiB (10%)
Alignment : Split accross interleaves
Interleave, duration : 42 ms (1.00 video frame)
Interleave, preload duration : 500 ms

Audio #2
ID : 2
Format : AC-3
Format/Info : Audio Coding 3
Commercial name : Dolby Digital
Codec ID : 2000
Duration : 24 min 41 s
Bit rate mode : Constant
Bit rate : 192 kb/s
Channel(s) : 2 channels
Channel layout : L R
Sampling rate : 48.0 kHz
Frame rate : 31.250 FPS (1536 SPF)
Bit depth : 16 bits
Compression mode : Lossy
Stream size : 33.9 MiB (10%)
Alignment : Split accross interleaves
Interleave, duration : 42 ms (1.00 video frame)
Interleave, preload duration : 500 ms

Скриншоты




Релиз / Автор рипа: Deadmauvlad

 

Вложения

  • 14,9 KB Просмотры: 0
    Личеров 0
    Сидеров 0
    Файлов 26
    Объем 4,2 GB
Ваш e-mail не будет опубликован. Он потребуется для подтверждения Вашего поста.
Оформление текста Нажмите «Ввод», чтобы отправить ответ.

Привет!

Мы группа людей которые решили помочь другим в решении их проблем, а так же пользователям с поиском самых свежих и качественных инфопродуктов. За 4 с небольшим месяца мы создали этот форум на который заходят ежедневно тысячи человек и посещаемость постоянно растёт. Мы создали панель лицензирования для защиты PHP скриптов от воровства и SEO панель для мониторинга наших сайтов и выбора верной стратегии их развития. Мы надеемся что то что мы создали пригодится Вам и возможно Вы поможете нам развиваться и совершенствоваться вместе с Вами.

Статистика форума

Темы
378.775
Сообщения
418.216
Пользователи
50.058
Новый пользователь
misterproger

Приложения форума для iOS и Android


У ркн там нет власти ;)
Приватные разговоры
Помощь Пользователи
    Вы не присоединились ни к одной комнате.