За последнюю неделю опубликовано 30 новых материалов.
Инструкция новичку Путеводитель по форуму Прокси для Telegram Показать подсказки , это бомба!

Скачать Fleshgod Apocalypse - Veleno [Deluxe Edition, 24bit Hi-Res] (2019) FLAC бесплатно через торрент

  • Поучаствуй (в качестве покупателя) в любых пяти совместных покупках (кроме завершённых и "Моментальных") и получи группу "Новичок" навсегда -> ссылка на раздел
  • Получай до 480 рублей за каждого приглашенного пользователя!
    представляем Вам очередное расширение партнерской программы, подробности описаны тут -> ссылка
  • 90% материалов доступно к скачиванию после простой регистрации!
    Если же ты хочешь скачивать материалы без требования оставлять отзывы то получи группу "Новичок", 10 способов повышения описаны тут -> ссылка
  • К сожалению количество битых ссылок растет и мы уже не можем их оперативно восстанавливать поэтому просим помощи у каждого нашего пользователя.
    С сегодняшнего дня, за каждую восстановленную ссылку мы заплатим Вам.
    Подробнее тут -> ссылка
  • Перенесем твои заслуги с другого ресурса!
    Мы понимаем как сложно прокачивать аккаунты на форумах, вроде раскачал аккаунт, а тут появляется ресурс в 100 раз круче но тоже с системой прокачки и снова качать аккаунт...
    Предлагаем вам перенести Ваши заслуги на другом подобном ресурсе к нам.
    Подробности описаны тут -> ссылка
  • Вы можете получать по 2.5% с каждой покупки и продажи на маркете! Подробности в теме Партнёрская программа

Torrent_Bot

Торрент-Бот
Бот форума
4 Окт 2016
93
160
20



Исполнитель: Fleshgod Apocalypse
Название: Veleno
Страна: Italy
Жанр: Symphonic, Technical-Death-Metal
Год: 2019
Продолжительность: 01:54:09
Битрейт аудио: Lossless
Формат/Кодек: FLAC
Тип рипа: tracks
Разрядность: 24/44.1
Количество каналов: 2.0


01. Fury (4:38)
02. Carnivorous Lamb (4:40)
03. Sugar (4:17)
04. The Praying Mantis' Strategy (1:04)
05. Monnalisa (5:24)
06. Worship and Forget (4:32)
07. Absinthe (6:09)
08. Pissing on the Score (4:30)
09. The Day We'll Be Gone (5:58)
10. Embrace the Oblivion (7:49)
11. Veleno (2:42)
12. Reise, Reise (4:42)
13. The Forsaking (Nocturnal Version) (6:00)
14. Fury (Instrumental) (4:39)
15. Carnivorous Lamb (Instrumental) (4:40)
16. Sugar (Instrumental) (4:17)
17. The Praying Mantis' Strategy (Instrumental) (1:04)
18. Monnalisa (Instrumental) (5:24)
19. Worship and Forget (Instrumental) (4:32)
20. Absinthe (Instrumental) (6:09)
21. Pissing on the Score (Instrumental) (4:30)
22. The Day We'll Be Gone (Instrumental) (5:58)
23. Embrace the Oblivion (Instrumental) (7:49)
24. Veleno (Instrumental) (2:41)

DR
foobar2000 1.4.4 / Замер динамического диапазона (DR) 1.1.1
Дата отчёта: 2019-06-13 06:35:09

--------------------------------------------------------------------------------
Анализ: Fleshgod Apocalypse / Veleno (Deluxe Version)
--------------------------------------------------------------------------------

DR Пики RMS Продолжительность трека
--------------------------------------------------------------------------------
DR6 -1.20 дБ -7.86 дБ 4:38 01-Fury
DR6 -1.16 дБ -7.86 дБ 4:40 02-Carnivorous Lamb
DR5 -1.19 дБ -7.94 дБ 4:17 03-Sugar
DR9 -1.23 дБ -19.10 дБ 1:04 04-The Praying Mantis' Strategy
DR5 -1.07 дБ -8.22 дБ 5:24 05-Monnalisa
DR6 -0.86 дБ -7.58 дБ 4:32 06-Worship and Forget
DR5 -1.20 дБ -7.39 дБ 6:09 07-Absinthe
DR5 -1.20 дБ -7.52 дБ 4:30 08-Pissing on the Score
DR5 -1.20 дБ -10.39 дБ 5:58 09-The Day We'll Be Gone
DR6 -1.19 дБ -8.87 дБ 7:49 10-Embrace the Oblivion
DR10 -6.46 дБ -21.08 дБ 2:42 11-Veleno
DR6 -1.25 дБ -8.51 дБ 4:42 12-Reise, Reise
DR8 -1.18 дБ -14.05 дБ 6:00 13-The Forsaking
DR6 -1.20 дБ -8.35 дБ 4:39 14-Fury
DR6 -1.16 дБ -8.15 дБ 4:40 15-Carnivorous Lamb
DR6 -1.20 дБ -8.40 дБ 4:17 16-Sugar
DR9 -1.23 дБ -19.10 дБ 1:04 17-The Praying Mantis' Strategy
DR6 -1.01 дБ -8.60 дБ 5:24 18-Monnalisa
DR6 -0.96 дБ -7.98 дБ 4:32 19-Worship and Forget
DR6 -1.20 дБ -7.81 дБ 6:09 20-Absinthe
DR6 -1.20 дБ -7.98 дБ 4:30 21-Pissing on the Score
DR6 -1.19 дБ -11.13 дБ 5:58 22-The Day We'll Be Gone
DR6 -1.19 дБ -9.20 дБ 7:49 23-Embrace the Oblivion
DR10 -6.46 дБ -21.08 дБ 2:41 24-Veleno
--------------------------------------------------------------------------------

Количество треков: 24
Реальные значения DR: DR6

Частота: 44100 Гц
Каналов: 2
Разрядность: 24
Битрейт: 1082 кбит/с
Кодек: FLAC
================================================================================
 

Вложения

  • 15 KB Просмотры: 1
    Личеров 0
    Сидеров 0
    Файлов 25
    Объем 1,3 GB

Привет!

Мы группа людей которые решили помочь другим в решении их проблем, а так же пользователям с поиском самых свежих и качественных инфопродуктов. За 4 с небольшим месяца мы создали этот форум на который заходят ежедневно тысячи человек и посещаемость постоянно растёт. Мы создали панель лицензирования для защиты PHP скриптов от воровства и SEO панель для мониторинга наших сайтов и выбора верной стратегии их развития. Мы надеемся что то что мы создали пригодится Вам и возможно Вы поможете нам развиваться и совершенствоваться вместе с Вами.

Статистика форума

Темы
406.599
Сообщения
465.010
Пользователи
84.358
Новый пользователь
koasa

Приложения форума для iOS и Android


У ркн там нет власти ;)
Приватные разговоры
Помощь Пользователи
    Вы не присоединились ни к одной комнате.