За последнюю неделю опубликовано 16 новых материалов.
Инструкция новичку Путеводитель по форуму Прокси для Telegram Показать подсказки , это бомба!

Скачать Флэш Гордон / Flash Gordon (1980) BDRip 1080p | P, P2, A бесплатно через торрент

  • Поучаствуй (в качестве покупателя) в любых пяти совместных покупках (кроме завершённых и "Моментальных") и получи группу "Новичок" навсегда -> ссылка на раздел
  • Получай до 480 рублей за каждого приглашенного пользователя!
    представляем Вам очередное расширение партнерской программы, подробности описаны тут -> ссылка
  • 90% материалов доступно к скачиванию после простой регистрации!
    Если же ты хочешь скачивать материалы без требования оставлять отзывы то получи группу "Новичок", 10 способов повышения описаны тут -> ссылка
  • К сожалению количество битых ссылок растет и мы уже не можем их оперативно восстанавливать поэтому просим помощи у каждого нашего пользователя.
    С сегодняшнего дня, за каждую восстановленную ссылку мы заплатим Вам.
    Подробнее тут -> ссылка
  • Перенесем твои заслуги с другого ресурса!
    Мы понимаем как сложно прокачивать аккаунты на форумах, вроде раскачал аккаунт, а тут появляется ресурс в 100 раз круче но тоже с системой прокачки и снова качать аккаунт...
    Предлагаем вам перенести Ваши заслуги на другом подобном ресурсе к нам.
    Подробности описаны тут -> ссылка
  • Вы можете получать по 2.5% с каждой покупки и продажи на маркете! Подробности в теме Партнёрская программа
Если Вы не хотите скачивать, Вы всегда можетепосмотретьонлайн, просто нажмите кнопку ниже :

Открыть плеер

Torrent_Bot

Торрент-Бот
Бот форума
4 Окт 2016
122
116
20


Информация о фильме
Название: Флэш Гордон
Оригинальное название: Flash Gordon
Год выпуска: 1980
Страна: Великобритания, США
Жанр: Фантастика, приключения
Продолжительность: 01:51:28

Перевод: Профессиональный (многоголосый закадровый), Профессиональный (двухголосый закадровый), Авторский (одноголосый закадровый)
Субтитры: Русские, английские

Режиссер: Майк Ходжис

В ролях: Сэм Дж. Джоунс, Мелоди Андерсон , Орнелла Мути, Макс фон Зюдов, Топол, Тимоти Далтон, Брайан Блессид, Питер Уингард, Марианджела Мелато, Джон Осборн, Ричард О'Брайен, Джон Хэллэм, Сюзанн Даниэль, Филип Стоун, Робби Колтрэйн

Описание: Флэш Гордон - экранизация одноимённого комикса 1930-х годов.
Странные энергетические волны сместили Луну с орбиты, вызвав тотальное солнечное затмение на Земле. Жизнь человечества в опасности. Доктор Зарков уговаривает звезду американского футбола Флэша Гордона и прелестную Дэйл совершить вместе с ним отчаянный прыжок в гиперпространство — на планету Монго, откуда исходят разрушительные энергетические волны.
Планетой управляет император Минг Беспощадный и его дочь, злобная красавица Аура. У героев есть только одна возможность спасти Землю — уничтожить Минга, объединив враждующих между собой принцев этой далекой планеты…

Все песни к фильму были написаны и исполнены группой Queen. Альбом носил одноименное название и достиг десятой строчки британского хит-парада.



Файл
Кодек: x264
Качество: BDRip 1080p
Видео: MPEG4 Video (H264), 1920x816, 24fps, 12.7 Mbps
Аудио #01: Русский, Dolby AC3, 48000 Hz, 6ch, 384 kbps - Профессиональный (многоголосый, закадровый)
Аудио #02: Русский, Dolby AC3, 48000 Hz, 2ch, 192 kbps - Профессиональный (двухголосый закадровый) Екатеринбург Арт
Аудио #03: Русский, Dolby AC3, 48000 Hz, 2ch, 192 kbps - Авторский (одноголосый закадровый) Петербуржец
Аудио #04: Английский, Dolby AC3, 48000 Hz, 6ch, 384 kbps
Формат субтитров: Softsub (SRT)

MediaInfo:
General
Unique ID : 236109381872983159419200057362299079194 (0xB1A1034B72AAF044972EE49B6395CA1A)
Complete name : D:Torrent21980.Flash.Gordon.likko.mkv
Format : Matroska
Format version : Version 4
File size : 10.8 GiB
Duration : 1 h 58 min
Overall bit rate : 13.1 Mb/s
Movie name : 1980 Флэш Гордон /likko
Encoded date : UTC 2019-12-13 05:48:14
Writing application : mkvmerge v8.3.0 ('Over the Horizon') 64bit
Writing library : libebml v1.3.1 + libmatroska v1.4.2

Video
ID : 1
Format : AVC
Format/Info : Advanced Video Codec
Format profile : [email protected]
Format settings : CABAC / 5 Ref Frames
Format settings, CABAC : Yes
Format settings, Reference : 5 frames
Codec ID : V_MPEG4/ISO/AVC
Duration : 1 h 51 min
Bit rate : 12.7 Mb/s
Width : 1 920 pixels
Height : 816 pixels
Display aspect ratio : 2.35:1
Frame rate mode : Constant
Frame rate : 24.000 FPS
Color space : YUV
Chroma subsampling : 4:2:0
Bit depth : 8 bits
Scan type : Progressive
Bits/(Pixel*Frame) : 0.338
Stream size : 9.89 GiB (92%)
Title : 1980 Флэш Гордон
Writing library : x264 core 148 r2638 7599210
Encoding settings : cabac=1 / ref=5 / deblock=1:-1:-1 / analyse=0x3:0x133 / me=umh / subme=11 / psy=1 / psy_rd=1.00:0.15 / mixed_ref=1 / me_range=48 / chroma_me=1 / trellis=2 / 8x8dct=1 / cqm=0 / deadzone=21,11 / fast_pskip=0 / chroma_qp_offset=-3 / threads=18 / lookahead_threads=4 / sliced_threads=0 / nr=0 / decimate=1 / interlaced=0 / bluray_compat=0 / constrained_intra=0 / bframes=10 / b_pyramid=2 / b_adapt=2 / b_bias=0 / direct=3 / weightb=1 / open_gop=0 / weightp=2 / keyint=250 / keyint_min=23 / scenecut=40 / intra_refresh=0 / rc=2pass / mbtree=0 / bitrate=12700 / ratetol=1.0 / qcomp=0.60 / qpmin=0 / qpmax=69 / qpstep=4 / cplxblur=20.0 / qblur=0.5 / ip_ratio=1.40 / pb_ratio=1.30 / aq=2:1.00
Language : English
Default : Yes
Forced : No

Audio #1
ID : 2
Format : AC-3
Format/Info : Audio Coding 3
Commercial name : Dolby Digital
Codec ID : A_AC3
Duration : 1 h 51 min
Bit rate mode : Constant
Bit rate : 384 kb/s
Channel(s) : 6 channels
Channel layout : L R C LFE Ls Rs
Sampling rate : 48.0 kHz
Frame rate : 31.250 FPS (1536 SPF)
Compression mode : Lossy
Stream size : 306 MiB (3%)
Title : Многоголосый
Language : Russian
Service kind : Complete Main
Default : Yes
Forced : No

Audio #2
ID : 3
Format : AC-3
Format/Info : Audio Coding 3
Commercial name : Dolby Digital
Codec ID : A_AC3
Duration : 1 h 51 min
Bit rate mode : Constant
Bit rate : 192 kb/s
Channel(s) : 2 channels
Channel layout : L R
Sampling rate : 48.0 kHz
Frame rate : 31.250 FPS (1536 SPF)
Compression mode : Lossy
Stream size : 153 MiB (1%)
Title : Двухголосый, Екатеринбург Арт
Language : Russian
Service kind : Complete Main
Default : No
Forced : No

Audio #3
ID : 4
Format : AC-3
Format/Info : Audio Coding 3
Commercial name : Dolby Digital
Codec ID : A_AC3
Duration : 1 h 51 min
Bit rate mode : Constant
Bit rate : 192 kb/s
Channel(s) : 2 channels
Channel layout : L R
Sampling rate : 48.0 kHz
Frame rate : 31.250 FPS (1536 SPF)
Compression mode : Lossy
Stream size : 153 MiB (1%)
Title : Одноголосый, Петербуржец
Language : Russian
Service kind : Complete Main
Default : No
Forced : No

Audio #4
ID : 5
Format : AC-3
Format/Info : Audio Coding 3
Commercial name : Dolby Digital
Codec ID : A_AC3
Duration : 1 h 51 min
Bit rate mode : Constant
Bit rate : 384 kb/s
Channel(s) : 6 channels
Channel layout : L R C LFE Ls Rs
Sampling rate : 48.0 kHz
Frame rate : 31.250 FPS (1536 SPF)
Compression mode : Lossy
Stream size : 306 MiB (3%)
Language : English
Service kind : Complete Main
Default : No
Forced : No

Text #1
ID : 6
Format : UTF-8
Codec ID : S_TEXT/UTF8
Codec ID/Info : UTF-8 Plain Text
Duration : 1 h 46 min
Bit rate : 67 b/s
Count of elements : 920
Stream size : 52.7 KiB (0%)
Language : Russian
Default : No
Forced : No

Text #2
ID : 7
Format : UTF-8
Codec ID : S_TEXT/UTF8
Codec ID/Info : UTF-8 Plain Text
Duration : 1 h 57 min
Bit rate : 42 b/s
Count of elements : 1176
Stream size : 36.3 KiB (0%)
Language : English
Default : No
Forced : No

Menu
00:00:00.000 : en:Глава 01
00:16:01.708 : en:Глава 02
00:21:02.833 : en:Глава 03
00:31:27.542 : en:Глава 04
00:37:44.667 : en:Глава 05
00:49:40.750 : en:Глава 06
00:58:23.917 : en:Глава 07
01:10:37.792 : en:Глава 08
01:17:22.667 : en:Глава 09
01:24:06.457 : en:Глава 10
01:35:00.167 : en:Глава 11
01:44:51.417 : en:Глава 12
Скриншоты:

 

Вложения

  • 54,8 KB Просмотры: 0
    Личеров 0
    Сидеров 0
    Файлов 1
    Объем 10,8 GB

Привет!

Мы группа людей которые решили помочь другим в решении их проблем, а так же пользователям с поиском самых свежих и качественных инфопродуктов. За 4 с небольшим месяца мы создали этот форум на который заходят ежедневно тысячи человек и посещаемость постоянно растёт. Мы создали панель лицензирования для защиты PHP скриптов от воровства и SEO панель для мониторинга наших сайтов и выбора верной стратегии их развития. Мы надеемся что то что мы создали пригодится Вам и возможно Вы поможете нам развиваться и совершенствоваться вместе с Вами.

Статистика форума

Темы
385.067
Сообщения
430.518
Пользователи
63.227
Новый пользователь
Ivan11112222

Приложения форума для iOS и Android


У ркн там нет власти ;)
Приватные разговоры
Помощь Пользователи
    Вы не присоединились ни к одной комнате.