За последнюю неделю опубликовано 96 новых материалов.
Инструкция новичку Путеводитель по форуму Прокси для Telegram Показать подсказки , это бомба!

Скачать Финес и Ферб: Покорение второго измерения / Phineas and Ferb the Movie: Across the 2nd Dimension (2011) HDTVRip от Deadmauvlad | D | Disney бесплатно через торрент

  • Поучаствуй (в качестве покупателя) в любых пяти совместных покупках (кроме завершённых и "Моментальных") и получи группу "Новичок" навсегда -> ссылка на раздел
  • Получай до 480 рублей за каждого приглашенного пользователя!
    представляем Вам очередное расширение партнерской программы, подробности описаны тут -> ссылка
  • 90% материалов доступно к скачиванию после простой регистрации!
    Если же ты хочешь скачивать материалы без требования оставлять отзывы то получи группу "Новичок", 10 способов повышения описаны тут -> ссылка
  • К сожалению количество битых ссылок растет и мы уже не можем их оперативно восстанавливать поэтому просим помощи у каждого нашего пользователя.
    С сегодняшнего дня, за каждую восстановленную ссылку мы заплатим Вам.
    Подробнее тут -> ссылка
  • Перенесем твои заслуги с другого ресурса!
    Мы понимаем как сложно прокачивать аккаунты на форумах, вроде раскачал аккаунт, а тут появляется ресурс в 100 раз круче но тоже с системой прокачки и снова качать аккаунт...
    Предлагаем вам перенести Ваши заслуги на другом подобном ресурсе к нам.
    Подробности описаны тут -> ссылка
  • Вы можете получать по 2.5% с каждой покупки и продажи на маркете! Подробности в теме Партнёрская программа
Если Вы не хотите скачивать, Вы всегда можетепосмотретьонлайн, просто нажмите кнопку ниже :

Открыть плеер

Torrent_Bot

Торрент-Бот
Бот форума
4 Окт 2016
102
153
20
Информация о фильме
Название: Финес и Ферб: Покорение второго измерения
Оригинальное название: Phineas and Ferb the Movie: Across the 2nd Dimension
Год выхода: 2011
Жанр: мультфильм, фэнтези, комедия, приключения, семейный
Режиссер: Дэн Повенмайр, Роберт Хьюз / Dan Povenmire, Robert Hughes
В ролях: Винсент Мартелла
Эшли Тисдейл,Томас Сэнгстер,Кэролайн Ри,Ричард О’Брайэн,Дэн Повенмайр,Джефф «Свомпи» Марш,Элисон Стоунер,Молик Панчоли,Бобби Гейлор

Роли дублировали:

Мария Павлова (Candace Flynn, Candace-2),Дмитрий Череватенко (... Ferb Fletcher,... Phineas Flynn, Phineas-2,),Валерия Забегаева,Антон Батырев,Максим Глебов


Описание

Когда Финес, Ферб и Перри вошли вслед за доктором Фуфелшмертцем в созданный им «измерениенатор», они очутились в параллельной Вселенной. Здесь двойник доктора Фуфела, настоящий злодей, управляет Триштатьем с помощью армии роботов со стальными кулаками.
Чтобы спасти друзей от неминуемой гибели, Перри приходится пойти на величайшую жертву и раскрыть свой секретный псевдоним — «агент Пи». Финес и Ферб спасаются бегством и, встретив своих двойников из второго измерения, начинают операцию по освобождению Перри. Великая битва с участием наших героев начинается с защиты своего дома от злодея доктора Фуфела — и его приспешника Уткоборга!
Сможет ли злобный Фуфел завоевать господство в обоих мирах? Сможет ли Кендэс приструнить своих братьев? Узнай все сам, наблюдая за увлекательными приключениями наших друзей — они настолько невероятны, что выходят за пределы времени и пространства!


Выпущено: США,Walt Disney Television Animation
Продолжительность: 01:18:08
Озвучивание: Профессиональный (дублированный) [Disney] [Все песни переведены на русский язык кроме последней в конце фильма !]

Файл
Формат: AVI
Качество: HDTVRip исх.Phineas.and.Ferb.The.Movie.Across.the.2nd.Dimension.2011.720p.HDTV-SBRO
Видео: 720x400 (1.80:1), 23.976 fps, XviD build 73 ~2084 kbps avg, 0.30 bit/pixel
Audio #1: 48 kHz, AC3 Dolby Digital, 2/0 (L,R) ch, ~192.00 kbps avg [Disney]
Audio #2: 48 kHz, AC3 Dolby Digital, 3/2 (L,C,R,l,r) + LFE ch, ~384.00 [Оригинал] kbps avg
Субтитры Русские,Английские
Размер: 1495 MB

Скачать: Сэмпл

Рип Deadmauvlad

Скриншоты
запасные
MediaInfo
Общее
Полное имя : D:Рипы выкладка [Deadmauvlad]Рипы готовыеPhineas.and.Ferb.The.Movie.Across.the.2nd.Dimension.2011.HDTVRip.1.46.GB.Rus.Eng.DeadmauvladPhineas.and.Ferb.The.Movie.Across.the.2nd.Dimension.2011.HDTVRip.1.46.GB.Rus.Eng.Deadmauvlad.avi
Формат : AVI
Формат/Информация : Audio Video Interleave
Размер файла : 1,46 Гбайт
Продолжительность : 1 ч. 18 м.
Общий поток : 2675 Кбит/сек
Название фильма : Phineas.and.Ferb.The.Movie.Across.the.2nd.Dimension.2011.HDTVRip.Rus.Eng.Deadmauvlad
Режиссёр : Deadmauvlad
Жанр : Genre_00+
Программа кодирования : VirtualDubMod 1.5.10.3 | www.virtualdub-fr.org || (build 2550/release)
Формат оригинала/Имя : Мультфильм
Правообладатель : Goldenshara

Видео
Идентификатор : 0
Формат : MPEG-4 Visual
Профиль формата : Advanced Simple@L5
Параметр BVOP формата : 1
Параметр QPel формата : Нет
Параметр GMC формата : Без точки перехода
Параметр матрицы формата : Выборочная
Идентификатор кодека : XVID
Идентификатор кодека/Подсказка : XviD
Продолжительность : 1 ч. 18 м.
Битрейт : 2085 Кбит/сек
Ширина : 720 пикселей
Высота : 400 пикселей
Соотношение сторон : 16:9
Частота кадров : 23,976 кадра/сек
Цветовое пространство : YUV
Субдискретизация насыщенности : 4:2:0
Битовая глубина : 8 бит
Тип развёртки : Прогрессивная
Метод сжатия : С потерями
Бит/(Пиксели*Кадры) : 0.302
Размер потока : 1,14 Гбайт (78%)
Библиотека кодирования : XviD 73

Аудио #1
Идентификатор : 1
Формат : AC-3
Формат/Информация : Audio Coding 3
Расширение режима : CM (complete main)
Параметр Endianness формата : Big
Идентификатор кодека : 2000
Продолжительность : 1 ч. 18 м.
Вид битрейта : Постоянный
Битрейт : 192 Кбит/сек
Каналы : 2 канала
Расположение каналов : Front: L R
Частота : 48,0 КГц
Битовая глубина : 16 бит
Метод сжатия : С потерями
Размер потока : 107 Мбайт (7%)
Выравнивание : Разделение по промежуткам
Продолжительность промежутка : 42 мс. (1,00 видеокадр)
Время предзагрузки промежутка : 500 мс.

Аудио #2
Идентификатор : 2
Формат : AC-3
Формат/Информация : Audio Coding 3
Расширение режима : CM (complete main)
Параметр Endianness формата : Big
Идентификатор кодека : 2000
Продолжительность : 1 ч. 18 м.
Вид битрейта : Постоянный
Битрейт : 384 Кбит/сек
Каналы : 6 каналов
Расположение каналов : Front: L C R, Side: L R, LFE
Частота : 48,0 КГц
Битовая глубина : 16 бит
Метод сжатия : С потерями
Размер потока : 215 Мбайт (14%)
Выравнивание : Разделение по промежуткам
Продолжительность промежутка : 42 мс. (1,00 видеокадр)
Время предзагрузки промежутка : 500 мс.
 

Вложения

  • 16,2 KB Просмотры: 1
    Личеров 0
    Сидеров 0
    Файлов 3
    Объем 1,5 GB

Привет!

Мы группа людей которые решили помочь другим в решении их проблем, а так же пользователям с поиском самых свежих и качественных инфопродуктов. За 4 с небольшим месяца мы создали этот форум на который заходят ежедневно тысячи человек и посещаемость постоянно растёт. Мы создали панель лицензирования для защиты PHP скриптов от воровства и SEO панель для мониторинга наших сайтов и выбора верной стратегии их развития. Мы надеемся что то что мы создали пригодится Вам и возможно Вы поможете нам развиваться и совершенствоваться вместе с Вами.

Статистика форума

Темы
404.608
Сообщения
461.507
Пользователи
80.353
Новый пользователь
katnenka

Приложения форума для iOS и Android


У ркн там нет власти ;)
Приватные разговоры
Помощь Пользователи
    Вы не присоединились ни к одной комнате.