За последнюю неделю опубликовано 28 новых материалов.
Инструкция новичку Путеводитель по форуму Прокси для Telegram Показать подсказки , это бомба!

Скачать Филадельфия / Philadelphia (1993) BDRip-AVC от ExKinoRay | D, P, P2, A бесплатно через торрент

  • Поучаствуй (в качестве покупателя) в любых пяти совместных покупках (кроме завершённых и "Моментальных") и получи группу "Новичок" навсегда -> ссылка на раздел
  • Получай до 480 рублей за каждого приглашенного пользователя!
    представляем Вам очередное расширение партнерской программы, подробности описаны тут -> ссылка
  • 90% материалов доступно к скачиванию после простой регистрации!
    Если же ты хочешь скачивать материалы без требования оставлять отзывы то получи группу "Новичок", 10 способов повышения описаны тут -> ссылка
  • К сожалению количество битых ссылок растет и мы уже не можем их оперативно восстанавливать поэтому просим помощи у каждого нашего пользователя.
    С сегодняшнего дня, за каждую восстановленную ссылку мы заплатим Вам.
    Подробнее тут -> ссылка
  • Перенесем твои заслуги с другого ресурса!
    Мы понимаем как сложно прокачивать аккаунты на форумах, вроде раскачал аккаунт, а тут появляется ресурс в 100 раз круче но тоже с системой прокачки и снова качать аккаунт...
    Предлагаем вам перенести Ваши заслуги на другом подобном ресурсе к нам.
    Подробности описаны тут -> ссылка
  • Вы можете получать по 2.5% с каждой покупки и продажи на маркете! Подробности в теме Партнёрская программа
Если Вы не хотите скачивать, Вы всегда можетепосмотретьонлайн, просто нажмите кнопку ниже :

Открыть плеер

Torrent_Bot

Торрент-Бот
Бот форума
4 Окт 2016
93
155
20



Информация о фильме
Название: Филадельфия
Оригинальное название: Philadelphia
Год выпуска: 1993
Жанр:Драма
Режиссер: Джонатан Демме
В ролях: Том Хэнкс, Дензел Вашингтон, Рон Вотер, Джейсон Робардс, Антонио Бандерас, Брэдли Уитфорд, Лиза Саммерур, Джои Перилло, Чарльз Нэпьер, Роджер Корман, Роберта Максвелл, Базз Килман, Карен Финли, Дэниэл Чэпман, Марк Соренсен мл., Джеффри Уильямсон, Чарльз Гленн, Анна Дивер Смит, Стефани Рот, Лиза Талерико, Джоэнн Вудворд, Роберт Риджли, Чандра Уилсон, Форд Вилер, Дэвид Дрэйк, Питер Джейкобс, Пол Лэзар, Фредди Фокс, Пол Мур, Уоррен Миллер, Лоурен Розелли, Джейн Мур, Билл Роу, Глен Хартелл, Трейси Уолтер, Ричард Эрлих, Энн Дауд, Пег Френч, Энн Ховард, Джон Бедфорд Ллойд, Роберт В. Кастл, Молли Хикок, Дэн Олмстед, Элизабет Роби, Адам ЛеФевр, Гари Гоэцман

О фильме: История о человеке (Том Хэнкс), который был прекрасным юристом, хорошим специалистом в своей профессии, и просто добрым парнем. Его карьера стремительно пошла вверх. Жизнь была наполнена счастьем и радостью. Но в один миг все было разрушено. Он узнает, что болен страшной болезнью, от которой нет спасения. Это – СПИД… Все идет под откос и следующим несчастьем приходит увольнение с работы. Как жить дальше, кому нужен безработный, больной СПИДом, да еще и гей? Но нельзя опускать руки. Тогда Эндрю Бекетт, так зовут этого бедолагу, ищет адвоката, что бы доказать всем: с работы его уволили из-за болезни… Джо Миллер (Дензел Вашингтон) – хороший семьянин, любящий муж и отец, талантливый адвокат, возьмется ли он за это дело? И что с этого выйдет? Не каждый сыграет больного СПИДом гомосексуалиста, согласитесь. А Том Хэнкс сделал это, сделал «Оскароносно»!!!



Страна: США
Студия: Clinica Estetico Ltd., TriStar Pictures
Продолжительность: 02:05:27
Перевод: Дублированный, профессиональный многоголосый, профессиональный двухголосый, авторский одноголосый

Файл
Кодек: x264
Качество: BDRip (AVC)
Видео: MPEG-4 AVC, 2940 Кбит/с, 1024x554, 23.976 кадр/с
Аудио #1: Русский (AC3, 2 ch, 192 Кбит/с) - Дублированный (R5)
Аудио #2: Русский (АС3, 5 ch, 448 Кбит/с - Профессиональный многоголосый (Видеосервис)
Аудио #3: Русский (AC3, 2 ch, 192 Кбит/с) - Профессиональный многоголосый (ОРТ)
Аудио #4: Русский (AC3, 2 ch, 192 Кбит/с) / Профессиональный двухголосый (HTB+)
Аудио #5: Русский (АС3, 5 ch, 448 Кбит/с) - Авторский одноголосый (Cербин)
Аудио #6: Русский (АС3, 5 ch, 448 Кбит/с) - Авторский одноголосый (Гаврилов)
Аудио #7: Украинский (AC3, 2 ch, 192 Кбит/с) - Профессиональный многоголосый (Так Треба Продакшен)
Аудио #8: Английский (АС3, 5 ch, 448 Кбит/с) - Оригинал
Субтитры: Русские, английские
Навигация по главам: Есть


MI
x264 [info]: frame I:1233 Avg QP:15.00 size:115215
x264 [info]: frame P:36378 Avg QP:18.58 size: 31919
x264 [info]: frame B:142858 Avg QP:20.00 size: 10233

=================================

General
Unique ID : 205856272033167721612704570291661131622 (0x9ADE79D19FC66030A81A1BB89C714F66)
Complete name : D:philadelphia.1993.BDRip.AVC.ExKinoRay.mkv
Format : Matroska
Format version : Version 2
File size : 4.82 GiB
Duration : 2 h 5 min
Overall bit rate : 5 503 kb/s
Movie name : Филадельфия / Philadelphia (1993) from ExKinoRay
Encoded date : UTC 2018-09-08 14:23:55
Writing application : mkvmerge v5.6.0 ('Kenya Kane') built on May 27 2012 16:44:04
Writing library : libebml v1.2.3 + libmatroska v1.3.0

Video
ID : 1
Format : AVC
Format/Info : Advanced Video Codec
Format profile : High@L4.1
Format settings, CABAC : Yes
Format settings, ReFrames : 11 frames
Codec ID : V_MPEG4/ISO/AVC
Duration : 2 h 5 min
Bit rate : 2 940 kb/s
Width : 1 024 pixels
Height : 554 pixels
Display aspect ratio : 1.85:1
Frame rate mode : Constant
Frame rate : 23.976 (24000/1001) FPS
Color space : YUV
Chroma subsampling : 4:2:0
Bit depth : 8 bits
Scan type : Progressive
Bits/(Pixel*Frame) : 0.216
Stream size : 2.48 GiB (51%)
Title : Enigma
Writing library : x264 core 152 r2851 ba24899
Encoding settings : cabac=1 / ref=11 / deblock=1:-2:-2 / analyse=0x3:0x113 / me=umh / subme=10 / psy=1 / psy_rd=1.05:0.10 / mixed_ref=1 / me_range=32 / chroma_me=1 / trellis=2 / 8x8dct=1 / cqm=0 / deadzone=21,11 / fast_pskip=0 / chroma_qp_offset=-3 / threads=12 / lookahead_threads=3 / sliced_threads=0 / nr=0 / decimate=0 / interlaced=0 / bluray_compat=0 / constrained_intra=0 / bframes=10 / b_pyramid=2 / b_adapt=2 / b_bias=0 / direct=3 / weightb=1 / open_gop=0 / weightp=2 / keyint=240 / keyint_min=23 / scenecut=40 / intra_refresh=0 / rc=2pass / mbtree=0 / bitrate=2940 / ratetol=1.0 / qcomp=0.60 / qpmin=0 / qpmax=51 / qpstep=4 / cplxblur=20.0 / qblur=0.5 / ip_ratio=1.40 / pb_ratio=1.30 / aq=3:0.90
Language : English
Default : Yes
Forced : No
Color range : Limited
Color primaries : BT.709
Transfer characteristics : BT.709
Matrix coefficients : BT.709

Audio #1
ID : 2
Format : AC-3
Format/Info : Audio Coding 3
Mode extension : CM (complete main)
Format settings, Endianness : Big
Codec ID : A_AC3
Duration : 2 h 5 min
Bit rate mode : Constant
Bit rate : 192 kb/s
Channel(s) : 2 channels
Channel positions : Front: L R
Sampling rate : 48.0 kHz
Frame rate : 31.250 FPS (1536 spf)
Compression mode : Lossy
Stream size : 172 MiB (3%)
Title : DUB
Language : Russian
Default : Yes
Forced : No

Audio #2
ID : 3
Format : AC-3
Format/Info : Audio Coding 3
Mode extension : CM (complete main)
Format settings, Endianness : Big
Codec ID : A_AC3
Duration : 2 h 5 min
Bit rate mode : Constant
Bit rate : 448 kb/s
Channel(s) : 5 channels
Channel positions : Front: L C R, Side: L R
Sampling rate : 48.0 kHz
Frame rate : 31.250 FPS (1536 spf)
Compression mode : Lossy
Stream size : 402 MiB (8%)
Title : MVO | Видеосервис
Language : Russian
Default : No
Forced : No

Audio #3
ID : 4
Format : AC-3
Format/Info : Audio Coding 3
Format profile : Dolby Digital
Mode extension : CM (complete main)
Format settings, Endianness : Big
Codec ID : A_AC3
Duration : 2 h 5 min
Bit rate mode : Constant
Bit rate : 192 kb/s
Channel(s) : 2 channels
Channel positions : Front: L R
Sampling rate : 48.0 kHz
Frame rate : 31.250 FPS (1536 spf)
Compression mode : Lossy
Stream size : 172 MiB (3%)
Title : DVO | НТВ+
Language : Russian
Default : No
Forced : No

Audio #4
ID : 5
Format : AC-3
Format/Info : Audio Coding 3
Mode extension : CM (complete main)
Format settings, Endianness : Big
Codec ID : A_AC3
Duration : 2 h 5 min
Bit rate mode : Constant
Bit rate : 192 kb/s
Channel(s) : 2 channels
Channel positions : Front: L R
Sampling rate : 48.0 kHz
Frame rate : 31.250 FPS (1536 spf)
Compression mode : Lossy
Stream size : 172 MiB (3%)
Title : MVO | Первый.канал
Language : Russian
Default : No
Forced : No

Audio #5
ID : 6
Format : AC-3
Format/Info : Audio Coding 3
Mode extension : CM (complete main)
Format settings, Endianness : Big
Codec ID : A_AC3
Duration : 2 h 5 min
Bit rate mode : Constant
Bit rate : 448 kb/s
Channel(s) : 5 channels
Channel positions : Front: L C R, Side: L R
Sampling rate : 48.0 kHz
Frame rate : 31.250 FPS (1536 spf)
Compression mode : Lossy
Stream size : 402 MiB (8%)
Title : AVO | А. Гаврилов
Language : Russian
Default : No
Forced : No

Audio #6
ID : 7
Format : AC-3
Format/Info : Audio Coding 3
Mode extension : CM (complete main)
Format settings, Endianness : Big
Codec ID : A_AC3
Duration : 2 h 5 min
Bit rate mode : Constant
Bit rate : 448 kb/s
Channel(s) : 5 channels
Channel positions : Front: L C R, Side: L R
Sampling rate : 48.0 kHz
Frame rate : 31.250 FPS (1536 spf)
Compression mode : Lossy
Stream size : 402 MiB (8%)
Title : AVO | Ю. Сербин
Language : Russian
Default : No
Forced : No

Audio #7
ID : 8
Format : AC-3
Format/Info : Audio Coding 3
Mode extension : CM (complete main)
Format settings, Endianness : Big
Codec ID : A_AC3
Duration : 2 h 5 min
Bit rate mode : Constant
Bit rate : 192 kb/s
Channel(s) : 2 channels
Channel positions : Front: L R
Sampling rate : 48.0 kHz
Frame rate : 31.250 FPS (1536 spf)
Compression mode : Lossy
Stream size : 172 MiB (3%)
Title : MVO | Так Треба Продакшн
Language : Ukrainian
Default : No
Forced : No

Audio #8
ID : 9
Format : AC-3
Format/Info : Audio Coding 3
Mode extension : CM (complete main)
Format settings, Endianness : Big
Codec ID : A_AC3
Duration : 2 h 5 min
Bit rate mode : Constant
Bit rate : 448 kb/s
Channel(s) : 5 channels
Channel positions : Front: L C R, Side: L R
Sampling rate : 48.0 kHz
Frame rate : 31.250 FPS (1536 spf)
Compression mode : Lossy
Stream size : 402 MiB (8%)
Title : Original
Language : English
Default : No
Forced : No

Text #1
ID : 10
Format : UTF-8
Codec ID : S_TEXT/UTF8
Codec ID/Info : UTF-8 Plain Text
Title : Captions
Language : Russian
Default : Yes
Forced : No

Text #2
ID : 11
Format : UTF-8
Codec ID : S_TEXT/UTF8
Codec ID/Info : UTF-8 Plain Text
Title : Full
Language : Russian
Default : No
Forced : No

Text #3
ID : 12
Format : UTF-8
Codec ID : S_TEXT/UTF8
Codec ID/Info : UTF-8 Plain Text
Title : Full
Language : English
Default : No
Forced : No

Menu
00:00:00.000 : en:Start
00:03:30.816 : en:Beckett 1, Miller 0
00:15:20.650 : en:In Emergency
00:21:41.364 : en:At Miller's Office
00:24:50.678 : en:"Am I Being Fired?"
00:33:04.505 : en:At the Library
00:39:50.535 : en:Summons
00:42:50.966 : en:40th Wedding Anniversary
00:46:31.853 : en:Miller's Opening Remarks
00:48:25.717 : en:Conine's Opening Remarks
00:50:21.624 : en:Mr. Laird
00:55:22.258 : en:Miss Benedict
00:56:51.639 : en:Miss Burton
00:59:30.673 : en:At the Pharmacy
01:01:14.568 : en:Miss O'Hara
01:03:47.221 : en:Mr. Collins
01:07:20.642 : en:In the Navy
01:09:23.014 : en:Home Treatment
01:12:58.813 : en:A Better Idea
01:18:28.935 : en:"La Mamma Morta"
01:26:39.216 : en:Andrew Takes the Stand
01:30:24.817 : en:Cross-examination
01:36:53.371 : en:Five Minutes in Re-direct
01:39:21.478 : en:Charles Wheeler
01:44:12.060 : en:Mr. Seidman
01:46:24.150 : en:The Verdict
01:47:53.281 : en:At the Hospital
01:55:40.247 : en:Remembering Andy



Релиз от:

Автор релиза:
 

Вложения

  • 25,1 KB Просмотры: 1
    Личеров 0
    Сидеров 0
    Файлов 1
    Объем 4,8 GB

Привет!

Мы группа людей которые решили помочь другим в решении их проблем, а так же пользователям с поиском самых свежих и качественных инфопродуктов. За 4 с небольшим месяца мы создали этот форум на который заходят ежедневно тысячи человек и посещаемость постоянно растёт. Мы создали панель лицензирования для защиты PHP скриптов от воровства и SEO панель для мониторинга наших сайтов и выбора верной стратегии их развития. Мы надеемся что то что мы создали пригодится Вам и возможно Вы поможете нам развиваться и совершенствоваться вместе с Вами.

Статистика форума

Темы
406.550
Сообщения
464.706
Пользователи
83.404
Новый пользователь
Miss2545254

Приложения форума для iOS и Android


У ркн там нет власти ;)
Приватные разговоры
Помощь Пользователи
    Вы не присоединились ни к одной комнате.