За последнюю неделю опубликовано 96 новых материалов.
Инструкция новичку Путеводитель по форуму Прокси для Telegram Показать подсказки , это бомба!

Скачать Фестиваль / The Festival (2018) BDRemux 1080p | P бесплатно через торрент

  • Поучаствуй (в качестве покупателя) в любых пяти совместных покупках (кроме завершённых и "Моментальных") и получи группу "Новичок" навсегда -> ссылка на раздел
  • Получай до 480 рублей за каждого приглашенного пользователя!
    представляем Вам очередное расширение партнерской программы, подробности описаны тут -> ссылка
  • 90% материалов доступно к скачиванию после простой регистрации!
    Если же ты хочешь скачивать материалы без требования оставлять отзывы то получи группу "Новичок", 10 способов повышения описаны тут -> ссылка
  • К сожалению количество битых ссылок растет и мы уже не можем их оперативно восстанавливать поэтому просим помощи у каждого нашего пользователя.
    С сегодняшнего дня, за каждую восстановленную ссылку мы заплатим Вам.
    Подробнее тут -> ссылка
  • Перенесем твои заслуги с другого ресурса!
    Мы понимаем как сложно прокачивать аккаунты на форумах, вроде раскачал аккаунт, а тут появляется ресурс в 100 раз круче но тоже с системой прокачки и снова качать аккаунт...
    Предлагаем вам перенести Ваши заслуги на другом подобном ресурсе к нам.
    Подробности описаны тут -> ссылка
  • Вы можете получать по 2.5% с каждой покупки и продажи на маркете! Подробности в теме Партнёрская программа
Если Вы не хотите скачивать, Вы всегда можетепосмотретьонлайн, просто нажмите кнопку ниже :

Открыть плеер

Torrent_Bot

Торрент-Бот
Бот форума
4 Окт 2016
102
152
20



Информация о фильме
Название: Фестиваль
Оригинальное название: The Festival
Год выхода: 2018
Жанр: Комедия
Режиссер: Иэн Моррис
В ролях: Джо Томас, Ханна Тойнтон, Хаммед Анимашаун, Хью Коулз, Лизи Коноли, Тео Барклем-Биггз, Джемейн Клемент, Стирлинг Галлахер, Ли Уильямс, Том Найт и др.

О фильме:
Ника бросила девушка прямо перед выпускной церемонией. Безрезультатно поунижавшись у всех на глазах, прося её со сцены вернуться, парень несколько недель провалялся в депрессии, пока лучший друг Шэйн не вытащил его на большой музыкальный фестиваль. Познакомившись по дороге с неугомонной Эми, друзья добираются до места проведения фестиваля, где сразу же сталкиваются с бывшей девушкой Ника.




Страна: Великобритания
Студия: Film4, Fudge Park Productions
Продолжительность: 01:37:56
Перевод: Профессиональный (многоголосый закадровый) | Онлайн кинотеатр

Файл
Качество: BDRemux 1080p
Видео: MPEG-4 AVC, 1920x1080, 25.4 Mb/s, 23,976 fps
Аудио #1: русский, AC3, 2.0 ch, 48 kHz, 192 kbps | Онлайн кинотеатр
Аудио #2: английский, DTS-HD MA, 5.1 ch, 48 kHz, 3689 kbps | оригинал
Субтитры: английские
MI:
General
Unique ID : 105710377046657005385169209098379232686 (0x4F8713FBA709421FB7E861E3812C85AE)
Complete name : F:Новая папка (20)The.Festival.2018.BDREMUX 1080p.mkv
Format : Matroska
Format version : Version 4
File size : 20.0 GiB
Duration : 1 h 37 min
Overall bit rate mode : Variable
Overall bit rate : 29.2 Mb/s
Movie name : The.Festival.2018.BDREMUX 1080p
Encoded date : UTC 2020-03-16 09:47:22
Writing application : mkvmerge v29.0.0 ('Like It Or Not') 64-bit
Writing library : libebml v1.3.6 + libmatroska v1.4.9

Video
ID : 1
Format : AVC
Format/Info : Advanced Video Codec
Format profile : High@L4.1
Format settings : CABAC / 4 Ref Frames
Format settings, CABAC : Yes
Format settings, RefFrames : 4 frames
Format settings, GOP : M=3, N=24
Codec ID : V_MPEG4/ISO/AVC
Duration : 1 h 37 min
Bit rate mode : Variable
Bit rate : 25.4 Mb/s
Maximum bit rate : 34.0 Mb/s
Width : 1 920 pixels
Height : 1 080 pixels
Display aspect ratio : 16:9
Frame rate mode : Constant
Frame rate : 23.976 (24000/1001) FPS
Standard : NTSC
Color space : YUV
Chroma subsampling : 4:2:0
Bit depth : 8 bits
Scan type : Progressive
Bits/(Pixel*Frame) : 0.510
Stream size : 17.3 GiB (87%)
Title : The.Festival.2018.BDREMUX 1080p
Language : English
Default : Yes
Forced : No
Color range : Limited
Color primaries : BT.709
Transfer characteristics : BT.709
Matrix coefficients : BT.709

Audio #1
ID : 2
Format : AC-3
Format/Info : Audio Coding 3
Commercial name : Dolby Digital
Codec ID : A_AC3
Duration : 1 h 37 min
Bit rate mode : Constant
Bit rate : 192 kb/s
Channel(s) : 2 channels
Channel layout : L R
Sampling rate : 48.0 kHz
Frame rate : 31.250 FPS (1536 SPF)
Bit depth : 16 bits
Compression mode : Lossy
Stream size : 134 MiB (1%)
Title : MVO [Онлайн кинотеатр]
Language : Russian
Service kind : Complete Main
Default : Yes
Forced : No

Audio #2
ID : 3
Format : DTS XLL
Format/Info : Digital Theater Systems
Commercial name : DTS-HD Master Audio
Codec ID : A_DTS
Duration : 1 h 37 min
Bit rate mode : Variable
Bit rate : 3 689 kb/s
Channel(s) : 6 channels
Channel layout : C L R Ls Rs LFE
Sampling rate : 48.0 kHz
Frame rate : 93.750 FPS (512 SPF)
Bit depth : 24 bits
Compression mode : Lossless
Stream size : 2.52 GiB (13%)
Title : Original (Eng)
Language : English
Default : No
Forced : No

Text
ID : 4
Format : UTF-8
Codec ID : S_TEXT/UTF8
Codec ID/Info : UTF-8 Plain Text
Duration : 1 h 37 min
Bit rate : 103 b/s
Count of elements : 2112
Stream size : 74.0 KiB (0%)
Language : English
Default : No
Forced : No

Menu
00:00:00.000 : en:Chapter 1
00:10:09.275 : en:Chapter 2
00:19:11.150 : en:Chapter 3
00:30:41.798 : en:Chapter 4
00:40:45.943 : en:Chapter 5
00:54:47.367 : en:Chapter 6
01:07:06.063 : en:Chapter 7
01:17:32.606 : en:Chapter 8
01:34:16.942 : en:Chapter 9
Скриншоты
 

Вложения

  • 200,9 KB Просмотры: 0
    Личеров 0
    Сидеров 0
    Файлов 1
    Объем 20 GB

Привет!

Мы группа людей которые решили помочь другим в решении их проблем, а так же пользователям с поиском самых свежих и качественных инфопродуктов. За 4 с небольшим месяца мы создали этот форум на который заходят ежедневно тысячи человек и посещаемость постоянно растёт. Мы создали панель лицензирования для защиты PHP скриптов от воровства и SEO панель для мониторинга наших сайтов и выбора верной стратегии их развития. Мы надеемся что то что мы создали пригодится Вам и возможно Вы поможете нам развиваться и совершенствоваться вместе с Вами.

Статистика форума

Темы
404.586
Сообщения
461.452
Пользователи
80.265
Новый пользователь
Vladimir7529

Приложения форума для iOS и Android


У ркн там нет власти ;)
Приватные разговоры
Помощь Пользователи
    Вы не присоединились ни к одной комнате.