За последнюю неделю опубликовано 34 новых материалов.
Инструкция новичку Путеводитель по форуму Прокси для Telegram Показать подсказки , это бомба!

Скачать Федька (2014) DVB от MediaClub бесплатно через торрент

  • Поучаствуй (в качестве покупателя) в любых пяти совместных покупках (кроме завершённых и "Моментальных") и получи группу "Новичок" навсегда -> ссылка на раздел
  • Получай до 480 рублей за каждого приглашенного пользователя!
    представляем Вам очередное расширение партнерской программы, подробности описаны тут -> ссылка
  • 90% материалов доступно к скачиванию после простой регистрации!
    Если же ты хочешь скачивать материалы без требования оставлять отзывы то получи группу "Новичок", 10 способов повышения описаны тут -> ссылка
  • К сожалению количество битых ссылок растет и мы уже не можем их оперативно восстанавливать поэтому просим помощи у каждого нашего пользователя.
    С сегодняшнего дня, за каждую восстановленную ссылку мы заплатим Вам.
    Подробнее тут -> ссылка
  • Перенесем твои заслуги с другого ресурса!
    Мы понимаем как сложно прокачивать аккаунты на форумах, вроде раскачал аккаунт, а тут появляется ресурс в 100 раз круче но тоже с системой прокачки и снова качать аккаунт...
    Предлагаем вам перенести Ваши заслуги на другом подобном ресурсе к нам.
    Подробности описаны тут -> ссылка
  • Вы можете получать по 2.5% с каждой покупки и продажи на маркете! Подробности в теме Партнёрская программа
Если Вы не хотите скачивать, Вы всегда можетепосмотретьонлайн, просто нажмите кнопку ниже :

Открыть плеер

Torrent_Bot

Торрент-Бот
Бот форума
4 Окт 2016
93
160
20
Информация о фильме
Оригинальное название: Федька
Год выхода: 2014
Жанр: Приключения
Режиссер: Елизавета Клейнот
В ролях: Михаил Гудков, Сергей Макеев, Ольга Волкова, Мария Шалаева, Равшана Куркова

О фильме:
Что делать, если у тебя нет бабушки? Найти ее. «Это невозможно»,- говорят все. Но мальчик Федька доказывает, что ничего невозможного в этом мире нет, особенно под Новый год. В то время, когда все дети заказывают Деду Морозу планшеты, игровые приставки и ролики, Федька пишет ему письмо с просьбой прислать ему бабушку. И делится своей новогодней тайной с лучшим другом Колькой. С этого и начинаются невероятные музыкальные приключения наших героев, их нянь Тошки и Пушпы, родителей Федьки инженеров-экспериментаторов и даже поющей черепашки. Желание Федьки исполнится, и он найдет свою необычную бабушку Надежду Васильевну. И всех ждет волшебный Новый год!



Страна: Россия
Студия: BBП- альянс
Продолжительность: 01:20:16
Язык: Русский


Файл
Качество: DVB
Видео: MPEG-2, 1710 Кбит/с, [email protected]
Звук: (MP2, 2 ch, 128 Кбит/с)

Семпл

Скриншоты
MI
Общее
Идентификатор : 19 (0x13)
Полное имя : Fedka.2014.DVB.MediaClub.ts
Формат : MPEG-TS
Размер файла : 1,09 Гбайт
Продолжительность : 1 ч. 20 м.
Режим общего битрейта : Переменный
Общий поток : 1935 Кбит/сек

Видео
Идентификатор : 204 (0xCC)
Идентификатор меню : 19104 (0x4AA0)
Формат : AVC
Формат/Информация : Advanced Video Codec
Профиль формата : [email protected]
Параметр CABAC формата : Да
Параметр ReFrames формата : 4 кадра
Идентификатор кодека : 27
Продолжительность : 1 ч. 20 м.
Битрейт : 1710 Кбит/сек
Ширина : 704 пикселя
Высота : 576 пикселей
Соотношение сторон : 4:3
Частота кадров : 25,000 кадров/сек
Стандарт вещания : Component
Цветовое пространство : YUV
Субдискретизация насыщенности : 4:2:0
Битовая глубина : 8 бит
Тип развёртки : Чересстрочная
Порядок развёртки : Верхнее поле первое
Бит/(Пиксели*Кадры) : 0.169
Размер потока : 982 Мбайт (88%)
Основные цвета : BT.601 PAL
Характеристики трансфера : BT.470 System B, BT.470 System G
Коэффициенты матрицы : BT.601

Аудио
Идентификатор : 304 (0x130)
Идентификатор меню : 19104 (0x4AA0)
Формат : MPEG Audio
Версия формата : Version 1
Профиль формата : Layer 2
Идентификатор кодека : 4
Продолжительность : 1 ч. 20 м.
Вид битрейта : Постоянный
Битрейт : 128 Кбит/сек
Каналы : 2 канала
Частота : 48,0 КГц
Метод сжатия : С потерями
Задержка видео : -936 мс.
Размер потока : 73,5 Мбайт (7%)
Язык : Russian
Язык, дополнительно : Clean effects

Меню
Идентификатор : 1904 (0x770)
Идентификатор меню : 19104 (0x4AA0)
Продолжительность : 1 ч. 20 м.
Список : 204 (0xCC) (AVC) / 304 (0x130) (MPEG Audio, Russian)
Язык : / Russian

Релиз от:
 

Вложения

  • 11,9 KB Просмотры: 1
    Личеров 0
    Сидеров 0
    Файлов 1
    Объем 1,1 GB

Привет!

Мы группа людей которые решили помочь другим в решении их проблем, а так же пользователям с поиском самых свежих и качественных инфопродуктов. За 4 с небольшим месяца мы создали этот форум на который заходят ежедневно тысячи человек и посещаемость постоянно растёт. Мы создали панель лицензирования для защиты PHP скриптов от воровства и SEO панель для мониторинга наших сайтов и выбора верной стратегии их развития. Мы надеемся что то что мы создали пригодится Вам и возможно Вы поможете нам развиваться и совершенствоваться вместе с Вами.

Статистика форума

Темы
406.601
Сообщения
464.997
Пользователи
84.279
Новый пользователь
motya2607

Приложения форума для iOS и Android


У ркн там нет власти ;)
Приватные разговоры
Помощь Пользователи
    Вы не присоединились ни к одной комнате.